Haseen Dillruba 2021 x264 720p WebHD Esub Hindi THE GOPI SAHI

Directed byVinil Mathew
Produced byAanand L. Rai
Himanshu Sharma
Bhushan Kumar
Krishan Kumar
Written byKanika Dhillon
StarringTaapsee Pannu
Vikrant Massey
Harshvardhan Rane
Music byScore:
Amar Mangrulkar
Songs:
Amit Trivedi
CinematographyJaya Krishna Gummadi
Edited byShweta Venkat Mathew
Production
companies
Distributed byNetflix[1]
Release date
  • 2 July 2021[2]
Running time
136 minutes[3]
CountryIndia
LanguageHindi

 


Haseen Dillruba 2021 x264 720p WebHD Esub Hindi THE GOPI SAHI


Format                         : Matroska
Format version                 : Version 4
File size                      : 1.03 GiB
Duration                       : 2 h 15 min
Overall bit rate               : 1 088 kb/s
Movie name                     : Haseen Dillruba 2021 GOPI SAHI
Encoded date                   : UTC 2021-07-04 06:52:18

Video
ID                             : 1
Format                         : AVC
Format/Info                    : Advanced Video Codec
Format profile                 : [email protected]
Format settings                : CABAC / 5 Ref Frames
Format settings, CABAC         : Yes
Format settings, Reference fra : 5 frames
Codec ID                       : V_MPEG4/ISO/AVC
Duration                       : 2 h 15 min
Bit rate                       : 899 kb/s
Width                          : 1 280 pixels
Height                         : 544 pixels
Display aspect ratio           : 2.35:1
Frame rate mode                : Constant
Frame rate                     : 24.000 FPS
Color space                    : YUV
Chroma subsampling             : 4:2:0
Bit depth                      : 8 bits
Scan type                      : Progressive
Bits/(Pixel*Frame)             : 0.054
Stream size                    : 870 MiB (82%)
Title                          : GOPI SAHI
Writing library                : x264 core 157 r2935 545de2f

Audio
ID                             : 2
Format                         : AAC LC
Format/Info                    : Advanced Audio Codec Low Complexity
Codec ID                       : A_AAC-2
Duration                       : 2 h 15 min
Bit rate                       : 192 kb/s
Channel(s)                     : 6 channels
Channel layout                 : C L R Ls Rs LFE
Sampling rate                  : 48.0 kHz
Frame rate                     : 46.875 FPS (1024 SPF)
Compression mode               : Lossy
Delay relative to video        : -21 ms
Stream size                    : 186 MiB (18%)
Title                          : GOPI SAHI
Language                       : Hindi
Default                        : Yes
Forced                         : No




MAGNET

TORRENT

TORRENT 2 PRIVATE


GDRIVE FILE COPY


DWONLOAD AUTO START IN 20 SEC


DOWNLOAD AND ONLINE TERABOX LINK

MEDIAFIRE

MEGANZ

DWNLOAD AND ONLINE

ONLINE 720P


Post a Comment

0 Comments