Hungama 2 2021 x264 720p WebHD Hindi THE GOPI SAHI

 

Hungama 2 (2021)

07/23/2021 (IN) Comedy 2h 36m 

Confusion Unlimited

Overview

A farcical comedy involving two families. Kapoors are headed by Colonel, who stays with his younger son, while Tiwaris are a childless couple. The lives of Kapoors and Tiwaris were as neat and perfect until one day a woman shows up at the door with an illegitimate child. Who is the father of this child?

 


Hungama 2 2021 x264 720p WebHD Hindi THE GOPI SAHI

Format                         : Matroska
Format version                 : Version 4
File size                      : 1.09 GiB
Duration                       : 2 h 36 min
Overall bit rate               : 998 kb/s
Movie name                     : Hungama 2 2021 GOPI SAHI
Encoded date                   : UTC 2021-07-24 04:12:06

Video
ID                             : 1
Format                         : AVC
Format/Info                    : Advanced Video Codec
Format profile                 : [email protected]
Format settings                : CABAC / 5 Ref Frames
Format settings, CABAC         : Yes
Format settings, Reference fra : 5 frames
Codec ID                       : V_MPEG4/ISO/AVC
Duration                       : 2 h 36 min
Bit rate                       : 899 kb/s
Width                          : 1 280 pixels
Height                         : 536 pixels
Display aspect ratio           : 2.40:1
Frame rate mode                : Constant
Frame rate                     : 24.000 FPS
Color space                    : YUV
Chroma subsampling             : 4:2:0
Bit depth                      : 8 bits
Scan type                      : Progressive
Bits/(Pixel*Frame)             : 0.055
Stream size                    : 1 004 MiB (90%)
Title                          : GOPI SAHI
Writing library                : x264 core 157 r2935 545de2f

Audio
ID                             : 2
Format                         : AAC LC
Format/Info                    : Advanced Audio Codec Low Complexity
Codec ID                       : A_AAC-2
Duration                       : 2 h 36 min
Bit rate                       : 96.0 kb/s
Channel(s)                     : 2 channels
Channel layout                 : L R
Sampling rate                  : 48.0 kHz
Frame rate                     : 46.875 FPS (1024 SPF)
Compression mode               : Lossy
Delay relative to video        : -105 ms
Stream size                    : 108 MiB (10%)
Title                          : GOPI SAHI
Language                       : Hindi
Default                        : Yes
Forced                         : No




 MAGNET

TORRENT

TORRENT 2 PRIVATE

G-DRIVE FILE COPY

DOWNLOAD AUTO START IN 20 SEC

DOWNLOAD AND ONLINE TERA-BOX LINK


MEDIA-FIRE

DROPBOX

MEGA NZ

DOWNLOAD AND ONLINE


ONLINE 720P

 

Post a Comment

0 Comments