I Am Number Four 2011x264 720p Esub BluRay Dual Audio English Hindi THE GOPI SAHI

I Am Number Four (2011)

PG-13 02/18/2011 (US) ActionThrillerScience FictionAdventure 1h 49m 
 

Three like him have already been killed…he is Number Four.

Overview

A teenage fugitive with an incredible secret races to stay one step ahead of the mysterious forces seeking destroy him in this sci-fi action thriller. With three dead and one on the run, the race to find the elusive Number Four begins. Outwardly normal teen John Smith never gets too comfortable in the same identity, and along with his guardian, Henri, he is constantly moving from town to town. With each passing day, John gains a stronger grasp on his extraordinary new powers, and his bond to the beings that share his fantastic fate grows stronger.

Directed byD. J. Caruso
Produced byMichael Bay
Screenplay by
Based onI Am Number Four
by Pittacus Lore
Starring
Music byTrevor Rabin
CinematographyGuillermo Navarro
Edited by
  • Vince Filippone
  • Jim Page
Production
companies
Distributed byWalt Disney Studios
Motion Pictures
[a]
Release date
  • February 18, 2011
Running time
109 minutes[4]
CountryUnited States
LanguageEnglish
Budget$50 million[5]
Box office$150 million[6]



I Am Number Four 2011x264 720p Esub BluRay Dual Audio English Hindi THE GOPI SAHI


Format                         : Matroska
Format version                 : Version 4
File size                      : 939 MiB
Duration                       : 1 h 49 min
Overall bit rate               : 1 197 kb/s
Movie name                     : I Am Number Four 2011 GOPI SAHI
Encoded date                   : UTC 2021-07-06 08:42:19

Video
ID                             : 1
Format                         : AVC
Format/Info                    : Advanced Video Codec
Format profile                 : [email protected]
Format settings                : CABAC / 5 Ref Frames
Format settings, CABAC         : Yes
Format settings, Reference fra : 5 frames
Codec ID                       : V_MPEG4/ISO/AVC
Duration                       : 1 h 49 min
Bit rate                       : 899 kb/s
Width                          : 1 280 pixels
Height                         : 690 pixels
Display aspect ratio           : 1.85:1
Frame rate mode                : Constant
Frame rate                     : 23.976 (24000/1001) FPS
Color space                    : YUV
Chroma subsampling             : 4:2:0
Bit depth                      : 8 bits
Scan type                      : Progressive
Bits/(Pixel*Frame)             : 0.042
Stream size                    : 704 MiB (75%)
Title                          : GOPI SAHI
Writing library                : x264 core 157 r2935 545de2f

Audio #1
ID                             : 2
Format                         : AAC LC
Format/Info                    : Advanced Audio Codec Low Complexity
Codec ID                       : A_AAC-2
Duration                       : 1 h 49 min
Bit rate                       : 96.0 kb/s
Channel(s)                     : 2 channels
Channel layout                 : L R
Sampling rate                  : 48.0 kHz
Frame rate                     : 46.875 FPS (1024 SPF)
Compression mode               : Lossy
Delay relative to video        : 1 s 51 ms
Stream size                    : 75.6 MiB (8%)
Title                          : GOPI SAHI
Language                       : Hindi
Default                        : Yes
Forced                         : No

Audio #2
ID                             : 3
Format                         : AAC LC
Format/Info                    : Advanced Audio Codec Low Complexity
Codec ID                       : A_AAC-2
Duration                       : 1 h 49 min
Bit rate                       : 192 kb/s
Channel(s)                     : 6 channels
Channel layout                 : C L R Ls Rs LFE
Sampling rate                  : 48.0 kHz
Frame rate                     : 46.875 FPS (1024 SPF)
Compression mode               : Lossy
Delay relative to video        : -21 ms
Stream size                    : 151 MiB (16%)
Title                          : GOPI SAHI
Language                       : English
Default                        : No
Forced                         : No

Text
ID                             : 4
Format                         : PGS
Muxing mode                    : zlib
Codec ID                       : S_HDMV/PGS
Codec ID/Info                  : Picture based subtitle format used on BDs/HD-DVDs
Duration                       : 1 h 41 min
Bit rate                       : 24.0 kb/s
Count of elements              : 1872
Stream size                    : 17.5 MiB (2%)
Title                          : GOPI SAHI
Language                       : English
Default                        : No
Forced                         : No

Menu
00:00:00.000                   : :Chapter 1
00:04:09.541                   : :Chapter 2
00:11:33.193                   : :Chapter 3
00:18:00.454                   : :Chapter 4
00:25:41.373                   : :Chapter 5
00:30:58.190                   : :Chapter 6
00:39:29.534                   : :Chapter 7
00:45:30.311                   : :Chapter 8
00:54:51.663                   : :Chapter 9
01:03:43.403                   : :Chapter 10
01:14:23.209                   : :Chapter 11
01:21:59.790                   : :Chapter 12
01:27:39.629                   : :Chapter 13
01:32:27.625                   : :Chapter 14
01:37:03.568                   : :Chapter 15
01:41:56.152                   : :Chapter 16




 MAGNET

TORRENT

TORRENT 2 PRIVATE

GDRIVE FILE COPY


DWONLOAD AUTO START IN 20 SEC


DOWNLOAD AND ONLINE TERABOX LINK

MEDIAFIRE

MEGANZ

DWNLOAD AND ONLINE

ONLINE 720P

 

Post a Comment

0 Comments