Jingle All the Way 1996 Director’s Cut x264 720p Esub BluRay Dual Audio English Hindi THE GOPI SAHI

 

Jingle All the Way (1996)

PG 11/22/1996 (US) ComedyFamilyAdventure 1h 29m 
 

Two Dads, One Toy, No Prisoners.

Overview

Howard Langston, a salesman for a mattress company, is constantly kept busy at his job, disappointing his son. After he misses his son's karate exposition, Howard vows to make it up to him by buying an action figure of his son's favorite television hero for Christmas. Unfortunately for Howard, it is Christmas Eve, and every store is sold out of Turbo Man. Now, Howard must travel all over town and compete with everybody else to find a Turbo Man action figure.

Directed byBrian Levant
Produced by
Written byRandy Kornfield
Starring
Music byDavid Newman
CinematographyVictor J. Kemper
Edited by
Production
companies
Distributed by20th Century Fox
Release date
Running time
89 minutes
CountryUnited States
LanguageEnglish
Budget$75 million[2][3]
Box office$129.8 million

 

 



Jingle All the Way 1996 Director’s Cut x264 720p Esub BluRay Dual Audio English Hindi THE GOPI SAHI


Format                         : Matroska
Format version                 : Version 4
File size                      : 817 MiB
Duration                       : 1 h 33 min
Overall bit rate               : 1 218 kb/s
Movie name                     : Jingle All the Way 1996 Director’s Cut GOPI SAHI
Encoded date                   : UTC 2021-07-07 15:07:10

Video
ID                             : 1
Format                         : AVC
Format/Info                    : Advanced Video Codec
Format profile                 : [email protected]
Format settings                : CABAC / 5 Ref Frames
Format settings, CABAC         : Yes
Format settings, Reference fra : 5 frames
Codec ID                       : V_MPEG4/ISO/AVC
Duration                       : 1 h 33 min
Bit rate                       : 899 kb/s
Width                          : 1 280 pixels
Height                         : 694 pixels
Display aspect ratio           : 1.85:1
Frame rate mode                : Constant
Frame rate                     : 23.976 (24000/1001) FPS
Color space                    : YUV
Chroma subsampling             : 4:2:0
Bit depth                      : 8 bits
Scan type                      : Progressive
Bits/(Pixel*Frame)             : 0.042
Stream size                    : 602 MiB (74%)
Title                          : GOPI SAHI
Writing library                : x264 core 157 r2935 545de2f

Audio #1
ID                             : 2
Format                         : AAC LC
Format/Info                    : Advanced Audio Codec Low Complexity
Codec ID                       : A_AAC-2
Duration                       : 1 h 33 min
Bit rate                       : 96.0 kb/s
Channel(s)                     : 2 channels
Channel layout                 : L R
Sampling rate                  : 48.0 kHz
Frame rate                     : 46.875 FPS (1024 SPF)
Compression mode               : Lossy
Delay relative to video        : -21 ms
Stream size                    : 64.6 MiB (8%)
Title                          : GOPI SAHI
Language                       : Hindi
Default                        : Yes
Forced                         : No

Audio #2
ID                             : 3
Format                         : AAC LC
Format/Info                    : Advanced Audio Codec Low Complexity
Codec ID                       : A_AAC-2
Duration                       : 1 h 33 min
Bit rate                       : 192 kb/s
Channel(s)                     : 6 channels
Channel layout                 : C L R Ls Rs LFE
Sampling rate                  : 48.0 kHz
Frame rate                     : 46.875 FPS (1024 SPF)
Compression mode               : Lossy
Delay relative to video        : -21 ms
Stream size                    : 129 MiB (16%)
Title                          : GOPI SAHI
Language                       : English
Default                        : No
Forced                         : No

Text
ID                             : 4
Format                         : PGS
Muxing mode                    : zlib
Codec ID                       : S_HDMV/PGS
Codec ID/Info                  : Picture based subtitle format used on BDs/HD-DVDs
Duration                       : 1 h 32 min
Bit rate                       : 67.6 kb/s
Count of elements              : 2768
Stream size                    : 45.0 MiB (6%)
Title                          : GOPI SAHI
Language                       : English
Default                        : Yes
Forced                         : Yes

Menu
00:00:00.000                   : :Main Titles / Men of Action
00:07:57.143                   : :Jamie's Christmas Wish
00:13:45.241                   : :The Hunt Begins
00:16:20.855                   : :Conspiracy Theory
00:18:35.740                   : :No Laughing Matter
00:23:56.143                   : :Good Neighbor Ted
00:26:04.438                   : :Me and You
00:28:07.853                   : :Mall Madness
00:30:29.911                   : :The Bouncing Ball
00:32:45.589                   : :Back Door Santa
00:38:55.166                   : :Busted
00:42:18.077                   : :Broken Promises
00:45:22.845                   : :A Ruined Life
00:49:02.898                   : :Explosive Situation
00:56:59.625                   : :Breaking and Entering
01:03:44.404                   : :The Wintertainment Parade
01:06:03.042                   : :Ted's Comeuppance
01:08:47.290                   : :Showtime
01:13:06.966                   : :Pick A Kid
01:14:47.525                   : :Dementor and His Demon Team
01:18:22.156                   : :Turboman
01:22:33.699                   : :That's My Dad!
01:25:27.998                   : :Here We Go Again
01:26:15.003                   : :End Titles




 MAGNET

TORRENT


TORRENT 2 PRIVATE

GDRIVE FILE COPY


DWONLOAD AUTO START IN 20 SEC


DOWNLOAD AND ONLINE TERABOX LINK


MEDIAFIRE

MEGANZ


DWNLOAD AND ONLINE

ONLINE 720P

 

 

Post a Comment

0 Comments