Jolt 2021 x264 720p WebHD Esub English Hindi Telugu Tamil THE GOPI SAHI

 

Jolt (2021)

R 07/23/2021 (US) ActionComedy 1h 31m 

You're in for a shock.

Overview

Lindy is an acid-tongued woman with rage issues who controls her temper by shocking herself with an electrode vest. One day she makes a connection with Justin, who gives her a glimmer of hope for a shock-free future, but when he’s murdered she launches herself on a revenge-fueled rampage in pursuit of his killer.

 

 


Jolt 2021 x264 720p WebHD Esub English Hindi Telugu Tamil THE GOPI SAHI

Format                         : Matroska
Format version                 : Version 4
File size                      : 1.06 GiB
Duration                       : 1 h 30 min
Overall bit rate               : 1 672 kb/s
Movie name                     : Jolt 2021 GOPI SAHI
Encoded date                   : UTC 2021-07-24 20:11:32

Video
ID                             : 1
Format                         : AVC
Format/Info                    : Advanced Video Codec
Format profile                 : [email protected]
Format settings                : CABAC / 5 Ref Frames
Format settings, CABAC         : Yes
Format settings, Reference fra : 5 frames
Codec ID                       : V_MPEG4/ISO/AVC
Duration                       : 1 h 30 min
Bit rate                       : 899 kb/s
Width                          : 1 280 pixels
Height                         : 536 pixels
Display aspect ratio           : 2.40:1
Frame rate mode                : Constant
Frame rate                     : 24.000 FPS
Color space                    : YUV
Chroma subsampling             : 4:2:0
Bit depth                      : 8 bits
Scan type                      : Progressive
Bits/(Pixel*Frame)             : 0.055
Stream size                    : 585 MiB (54%)
Title                          : GOPI SAHI
Writing library                : x264 core 157 r2935 545de2f

Audio #1
ID                             : 2
Format                         : AAC LC
Format/Info                    : Advanced Audio Codec Low Complexity
Codec ID                       : A_AAC-2
Duration                       : 1 h 30 min
Bit rate                       : 192 kb/s
Channel(s)                     : 6 channels
Channel layout                 : C L R Ls Rs LFE
Sampling rate                  : 48.0 kHz
Frame rate                     : 46.875 FPS (1024 SPF)
Compression mode               : Lossy
Delay relative to video        : -21 ms
Stream size                    : 125 MiB (11%)
Title                          : GOPI SAHI
Language                       : Hindi
Default                        : Yes
Forced                         : No

Audio #2
ID                             : 3
Format                         : AAC LC
Format/Info                    : Advanced Audio Codec Low Complexity
Codec ID                       : A_AAC-2
Duration                       : 1 h 30 min
Bit rate                       : 192 kb/s
Channel(s)                     : 6 channels
Channel layout                 : C L R Ls Rs LFE
Sampling rate                  : 48.0 kHz
Frame rate                     : 46.875 FPS (1024 SPF)
Compression mode               : Lossy
Delay relative to video        : -21 ms
Stream size                    : 125 MiB (11%)
Title                          : GOPI SAHI
Language                       : English
Default                        : No
Forced                         : No

Audio #3
ID                             : 4
Format                         : AAC LC
Format/Info                    : Advanced Audio Codec Low Complexity
Codec ID                       : A_AAC-2
Duration                       : 1 h 30 min
Bit rate                       : 192 kb/s
Channel(s)                     : 6 channels
Channel layout                 : C L R Ls Rs LFE
Sampling rate                  : 48.0 kHz
Frame rate                     : 46.875 FPS (1024 SPF)
Compression mode               : Lossy
Delay relative to video        : -21 ms
Stream size                    : 125 MiB (11%)
Title                          : GOPI SAHI
Language                       : Tamil
Default                        : No
Forced                         : No

Audio #4
ID                             : 5
Format                         : AAC LC
Format/Info                    : Advanced Audio Codec Low Complexity
Codec ID                       : A_AAC-2
Duration                       : 1 h 30 min
Bit rate                       : 192 kb/s
Channel(s)                     : 6 channels
Channel layout                 : C L R Ls Rs LFE
Sampling rate                  : 48.0 kHz
Frame rate                     : 46.875 FPS (1024 SPF)
Compression mode               : Lossy
Delay relative to video        : -21 ms
Stream size                    : 125 MiB (11%)
Title                          : GOPI SAHI
Language                       : Telugu
Default                        : No
Forced                         : No

Text
ID                             : 6
Format                         : UTF-8
Codec ID                       : S_TEXT/UTF8
Codec ID/Info                  : UTF-8 Plain Text
Duration                       : 1 h 30 min
Bit rate                       : 60 b/s
Count of elements              : 1165
Stream size                    : 40.1 KiB (0%)
Title                          : GOPI SAHI
Language                       : English
Default                        : Yes
Forced                         : No




 MAGNET

TORRENT


TORRENT 2 PRIVATE


G-DRIVE FILE COPY

DOWNLOAD AUTO START IN 20 SEC

DOWNLOAD AND ONLINE TERA-BOX LINK

MEDIA-FIRE

DROPBOX

MEGA NZ

DOWNLOAD AND ONLINE

ONLINE 720P

 

Post a Comment

0 Comments