Last Action Hero 1993 x264 720p Esub BluRay Dual Audio English Hindi THE GOPI SAHI

Last Action Hero (1993)

PG-13 06/18/1993 (US) AdventureFantasyActionComedyFamily 2h 10m 
 

This isn't the movies anymore.

Overview

Danny is obsessed with a fictional movie character action hero Jack Slater. When a magical ticket transports him into Jack's latest adventure, Danny finds himself in a world where movie magic and reality collide. Now it's up to Danny to save the life of his hero and new friend.

 

Directed byJohn McTiernan
Screenplay by
Story by
Produced by
  • John McTiernan
  • Steve Roth
Starring
CinematographyDean Semler
Edited by
Music byMichael Kamen
Production
companies
Distributed byColumbia Pictures[1][2]
Release date
  • June 13, 1993 (Westwood)
  • June 18, 1993 (United States)
Running time
131 minutes[3]
CountryUnited States
LanguageEnglish
Budget$85 million[4]
Box office$137.3 million[4]

Last Action Hero 1993 x264 720p Esub BluRay Dual Audio English Hindi THE GOPI SAHI


Format                         : Matroska
Format version                 : Version 4
File size                      : 1.02 GiB
Duration                       : 2 h 10 min
Overall bit rate               : 1 110 kb/s
Movie name                     : Last Action Hero 1993 GOPI SAHI
Encoded date                   : UTC 2021-07-18 03:25:55
Writing application            : mkvmerge v52.0.0 ('Secret For The Mad') 64-bit

Video
ID                             : 1
Format                         : AVC
Format/Info                    : Advanced Video Codec
Format profile                 : [email protected]
Format settings                : CABAC / 5 Ref Frames
Format settings, CABAC         : Yes
Format settings, Reference fra : 5 frames
Codec ID                       : V_MPEG4/ISO/AVC
Duration                       : 2 h 10 min
Bit rate                       : 899 kb/s
Width                          : 1 280 pixels
Height                         : 534 pixels
Display aspect ratio           : 2.40:1
Frame rate mode                : Constant
Frame rate                     : 23.976 (24000/1001) FPS
Color space                    : YUV
Chroma subsampling             : 4:2:0
Bit depth                      : 8 bits
Scan type                      : Progressive
Bits/(Pixel*Frame)             : 0.055
Stream size                    : 842 MiB (81%)
Title                          : GOPI SAHI
Writing library                : x264 core 157 r2935 545de2f

Audio #1
ID                             : 2
Format                         : AAC LC
Format/Info                    : Advanced Audio Codec Low Complexity
Codec ID                       : A_AAC-2
Duration                       : 2 h 10 min
Bit rate                       : 96.0 kb/s
Channel(s)                     : 2 channels
Channel layout                 : L R
Sampling rate                  : 48.0 kHz
Frame rate                     : 46.875 FPS (1024 SPF)
Compression mode               : Lossy
Delay relative to video        : -21 ms
Stream size                    : 90.4 MiB (9%)
Title                          : GOPI SAHI
Language                       : Hindi
Default                        : Yes
Forced                         : No

Audio #2
ID                             : 3
Format                         : AAC LC
Format/Info                    : Advanced Audio Codec Low Complexity
Codec ID                       : A_AAC-2
Duration                       : 2 h 10 min
Bit rate                       : 96.0 kb/s
Channel(s)                     : 2 channels
Channel layout                 : L R
Sampling rate                  : 48.0 kHz
Frame rate                     : 46.875 FPS (1024 SPF)
Compression mode               : Lossy
Delay relative to video        : -21 ms
Stream size                    : 90.3 MiB (9%)
Title                          : GOPI SAHI
Language                       : English
Default                        : No
Forced                         : No

Text
ID                             : 4
ID in the original source medi : 4768 (0x12A0)
Format                         : PGS
Muxing mode                    : zlib
Codec ID                       : S_HDMV/PGS
Codec ID/Info                  : Picture based subtitle format used on BDs/HD-DVDs
Duration                       : 2 h 10 min
Bit rate                       : 35.6 kb/s
Count of elements              : 3166
Stream size                    : 33.2 MiB (3%)
Title                          : GOPI SAHI
Language                       : English
Default                        : No
Forced                         : No
Original source medium         : Blu-ray

Menu
00:00:00.000                   : :Chapter 1
00:08:33.138                   : :Chapter 2
00:19:23.746                   : :Chapter 3
00:30:33.123                   : :Chapter 4
00:37:02.095                   : :Chapter 5
00:46:52.643                   : :Chapter 6
00:51:51.984                   : :Chapter 7
00:59:47.125                   : :Chapter 8
01:07:06.105                   : :Chapter 9
01:18:15.858                   : :Chapter 10
01:24:15.968                   : :Chapter 11
01:32:16.281                   : :Chapter 12
01:45:28.906                   : :Chapter 13
01:50:05.891                   : :Chapter 14
01:58:50.749                   : :Chapter 15
02:02:04.025                   : :Chapter 16




MAGNET

TORRENT

TORRENT 2 PRIVATE

G-DRIVE FILE COPY

DOWNLOAD AUTO START IN 20 SEC

DOWNLOAD AND ONLINE TERA-BOX LINK


MEDIA-FIRE


MEGA NZ

DOWNLOAD AND ONLINE


ONLINE 720P

 

Post a Comment

0 Comments