Major Grom Plague Doctor 2021 x264 720p WebHD Esub Dual Audio English Hindi Russian THE GOPI SAHI

 

Major Grom: Plague Doctor (2021)

12+ 04/01/2021 (RU) ActionAdventure 2h 16m

Overview

Igor Grom is a skilled policeman from St. Petersburg, known for his daring nature and uncompromising attitude towards the criminals of all kinds. Incredible strength, analytical mind and integrity – these qualities make Major Grom the perfect policeman. Working tirelessly, he always pushes through, and meets the challenges standing in the way.

 

Directed byOleg Trofim
Produced by
  • Artyom Gabrelyanov (ru)
  • Michael Kitaev
  • Olga Filipuk
  • Roman Kotkov
  • Evgeniy Eronin
Written by
  • Artyom Gabrelyanov
  • Roman Kotkov
  • Evgeniy Eronin
  • Vladimir Besedin
  • Aleksandr Kim
  • Valentina Tronova
  • Nikolay Titov
Based on
Major Grom
by
  • Artyom Gabrelyanov
  • Evgeny Fedotov
Starring
  • Tikhon Zhiznevsky
  • Lyubov Aksyonova
  • Aleksei Maklakov
  • Aleksandr Seteykin
  • Sergei Goroshko
  • Dmitry Chebotarev
  • Mikhail Evlanov
  • Oleg Chugunov
Music byRoman Seliverstov
CinematographyMaxim Zhukov
Edited by
  • Yuriy Karikh
  • Aleksandr Puzyryov
Production
companies
Distributed by
Release date
Running time
137 minutes
CountryRussia
Languages
  • Russian
  • English
Budget
Box office
  • 316.8 million[2]
  • $4.4 million (Worldwide)[3


Major Grom Plague Doctor 2021 x264 720p WebHD Esub Dual Audio English Hindi THE GOPI SAHI


Format                         : Matroska
Format version                 : Version 4
File size                      : 1.42 GiB
Duration                       : 2 h 18 min
Overall bit rate               : 1 473 kb/s
Movie name                     : Major Grom Plague Doctor 2021 GOPI SAHI
Encoded date                   : UTC 2021-07-08 08:02:51

Video
ID                             : 1
Format                         : AVC
Format/Info                    : Advanced Video Codec
Format profile                 : [email protected]
Format settings                : CABAC / 5 Ref Frames
Format settings, CABAC         : Yes
Format settings, Reference fra : 5 frames
Codec ID                       : V_MPEG4/ISO/AVC
Duration                       : 2 h 18 min
Bit rate                       : 899 kb/s
Width                          : 1 280 pixels
Height                         : 536 pixels
Display aspect ratio           : 2.40:1
Frame rate mode                : Constant
Frame rate                     : 24.000 FPS
Color space                    : YUV
Chroma subsampling             : 4:2:0
Bit depth                      : 8 bits
Scan type                      : Progressive
Bits/(Pixel*Frame)             : 0.055
Stream size                    : 890 MiB (61%)
Title                          : GOPI SAHI
Writing library                : x264 core 157 r2935 545de2f

Audio #1
ID                             : 2
Format                         : AAC LC
Format/Info                    : Advanced Audio Codec Low Complexity
Codec ID                       : A_AAC-2
Duration                       : 2 h 18 min
Bit rate                       : 192 kb/s
Channel(s)                     : 6 channels
Channel layout                 : C L R Ls Rs LFE
Sampling rate                  : 48.0 kHz
Frame rate                     : 46.875 FPS (1024 SPF)
Compression mode               : Lossy
Delay relative to video        : -21 ms
Stream size                    : 188 MiB (13%)
Title                          : GOPI SAHI
Language                       : Hindi
Default                        : Yes
Forced                         : No

Audio #2
ID                             : 3
Format                         : AAC LC
Format/Info                    : Advanced Audio Codec Low Complexity
Codec ID                       : A_AAC-2
Duration                       : 2 h 18 min
Bit rate                       : 192 kb/s
Channel(s)                     : 6 channels
Channel layout                 : C L R Ls Rs LFE
Sampling rate                  : 48.0 kHz
Frame rate                     : 46.875 FPS (1024 SPF)
Compression mode               : Lossy
Delay relative to video        : -21 ms
Stream size                    : 188 MiB (13%)
Title                          : GOPI SAHI
Language                       : English
Default                        : No
Forced                         : No

Audio #3
ID                             : 4
Format                         : AAC LC
Format/Info                    : Advanced Audio Codec Low Complexity
Codec ID                       : A_AAC-2
Duration                       : 2 h 18 min
Bit rate                       : 192 kb/s
Channel(s)                     : 6 channels
Channel layout                 : C L R Ls Rs LFE
Sampling rate                  : 48.0 kHz
Frame rate                     : 46.875 FPS (1024 SPF)
Compression mode               : Lossy
Delay relative to video        : -21 ms
Stream size                    : 188 MiB (13%)
Title                          : GOPI SAHI
Language                       : Russian
Default                        : No
Forced                         : No

Text
ID                             : 5
Format                         : UTF-8
Codec ID                       : S_TEXT/UTF8
Codec ID/Info                  : UTF-8 Plain Text
Duration                       : 2 h 15 min
Bit rate                       : 48 b/s
Count of elements              : 1690
Stream size                    : 47.9 KiB (0%)
Title                          : GOPI SAHI
Language                       : English
Default                        : Yes
Forced                         : No





 MAGNET

TORRENT

TORRENT 2 PRIVATE


GDRIVE FILE COPY

DWONLOAD AUTO START IN 20 SEC

DOWNLOAD AND ONLINE TERABOX LINK

MEDIAFIRE

MEGANZ


DWNLOAD AND ONLINE

ONLINE 720P

 

 

Post a Comment

0 Comments