Mar Gaye Oye Loko 2018 x264 720p TV RIP HCEsub Punjabi THE GOPI SAHI

 

Mar Gaye Oye Loko (2018)

08/31/2018 (IN) ComedyDrama
 

Overview

Mar Gaye Oye Loko is an upcoming Indian-Punjabi film directed by Simerjit Singh starring Gippy Grewal, Binnu Dhillon & Sapna Pabbi. Film is releasing worldwide on 31st August 2018.

Punjabiਮਰ ਗਏ ਓਏ ਲੋਕੋ
Directed bySimerjit Singh
Written byGippy Grewal
Story byGippy Grewal
Produced byGippy Grewal
StarringGippy Grewal
Binnu Dhillon
Sapna Pabbi
Jaswinder Bhalla
Music byJay K
Snappy
Kuwar Virk
Gurmeet Singh
Guru Randhawa
Production
company
Humble Motion Pictures
Distributed byOmjee Group
Release date
  • 31 August 2018 (India)
Running time
117 minutes
CountryIndia
LanguagePunjabi
Box office19 million (see below)

 


Mar Gaye Oye Loko 2018 x264 720p TV RIP HCEsub Punjabi THE GOPI SAHI


Format                         : Matroska
Format version                 : Version 4
File size                      : 861 MiB
Duration                       : 1 h 50 min
Overall bit rate               : 1 094 kb/s
Movie name                     : Mar Gaye Oye Loko 2018 GOPI SAHI
Encoded date                   : UTC 2021-07-26 01:17:42
Writing application            : mkvmerge v52.0.0 ('Secret For The Mad') 64-bit
Writing library                : libebml v1.4.1 + libmatroska v1.6.2

Video
ID                             : 1
Format                         : AVC
Format/Info                    : Advanced Video Codec
Format profile                 : [email protected]
Format settings                : CABAC / 5 Ref Frames
Format settings, CABAC         : Yes
Format settings, Reference fra : 5 frames
Codec ID                       : V_MPEG4/ISO/AVC
Duration                       : 1 h 50 min
Bit rate                       : 899 kb/s
Width                          : 1 280 pixels
Height                         : 634 pixels
Display aspect ratio           : 2.019
Frame rate mode                : Constant
Frame rate                     : 25.000 FPS
Color space                    : YUV
Chroma subsampling             : 4:2:0
Bit depth                      : 8 bits
Scan type                      : Progressive
Bits/(Pixel*Frame)             : 0.044
Stream size                    : 708 MiB (82%)
Title                          : GOPI SAHI
Writing library                : x264 core 157 r2935 545de2f


Audio
ID                             : 2
Format                         : AAC LC
Format/Info                    : Advanced Audio Codec Low Complexity
Codec ID                       : A_AAC-2
Duration                       : 1 h 50 min
Bit rate                       : 192 kb/s
Channel(s)                     : 6 channels
Channel layout                 : C L R Ls Rs LFE
Sampling rate                  : 48.0 kHz
Frame rate                     : 46.875 FPS (1024 SPF)
Compression mode               : Lossy
Delay relative to video        : -9 ms
Stream size                    : 151 MiB (18%)
Title                          : GOPI SAHI
Language                       : Panjabi
Default                        : Yes
Forced                         : No





MAGNET

TORRENT

TORRENT 2 PRIVATE

G-DRIVE FILE COPY

DOWNLOAD AUTO START IN 20 SEC

DOWNLOAD AND ONLINE TERA-BOX LINK

MEDIA-FIRE

DROPBOX

MEGA NZ

DOWNLOAD AND ONLINE

ONLINE 720P

 

Post a Comment

0 Comments