Mimi 2021 x264 720p WebHD Hindi THE GOPI SAHI

Mimi (2021)

07/26/2021 (IN) ComedyDrama 2h 12m 

Nothing like what you're expecting!

Overview

An aspiring actress in a small town in Rajasthan agrees to bear a child for a visiting couple seeking a surrogate mother, but her experience takes an unexpected turn when they refuse to have a child anymore.


Mimi 2021 x264 720p WebHD Hindi THE GOPI SAHI


Format                         : Matroska
Format version                 : Version 4
File size                      : 944 MiB
Duration                       : 2 h 12 min
Overall bit rate               : 995 kb/s
Movie name                     : Mimi 2021 GOPI SAHI
Encoded date                   : UTC 2021-07-26 23:11:17

Video
ID                             : 1
Format                         : AVC
Format/Info                    : Advanced Video Codec
Format profile                 : [email protected]
Format settings                : CABAC / 5 Ref Frames
Format settings, CABAC         : Yes
Format settings, Reference fra : 5 frames
Codec ID                       : V_MPEG4/ISO/AVC
Duration                       : 2 h 12 min
Bit rate                       : 899 kb/s
Width                          : 1 280 pixels
Height                         : 534 pixels
Display aspect ratio           : 2.40:1
Frame rate mode                : Constant
Frame rate                     : 24.000 FPS
Color space                    : YUV
Chroma subsampling             : 4:2:0
Bit depth                      : 8 bits
Scan type                      : Progressive
Bits/(Pixel*Frame)             : 0.055
Stream size                    : 852 MiB (90%)
Title                          : GOPI SAHI
Writing library                : x264 core 157 r2935 545de2f

Audio
ID                             : 2
Format                         : AAC LC
Format/Info                    : Advanced Audio Codec Low Complexity
Codec ID                       : A_AAC-2
Duration                       : 2 h 12 min
Bit rate                       : 96.0 kb/s
Channel(s)                     : 2 channels
Channel layout                 : L R
Sampling rate                  : 48.0 kHz
Frame rate                     : 46.875 FPS (1024 SPF)
Compression mode               : Lossy
Delay relative to video        : -63 ms
Stream size                    : 89.8 MiB (10%)
Title                          : GOPI SAHI
Language                       : Hindi
Default                        : Yes
Forced                         : No




 MAGNET

TORRENT


TORRENT 2 PRIVATE


G-DRIVE FILE COPY


DOWNLOAD AUTO START IN 20 SEC


DOWNLOAD AND ONLINE TERA-BOX LINK

MEDIA-FIRE


DROPBOX


MEGA NZ

DOWNLOAD AND ONLINE


ONLINE 720P

 

Post a Comment

0 Comments