Mother 2017 x264 1080p Esub English Hindi THE GOPI SAHI

mother! (2017)

R 09/15/2017 (US) DramaHorrorMystery 2h 1m 
 

Seeing is believing

Overview

A couple's relationship is tested when uninvited guests arrive at their home, disrupting their tranquil existence.

Directed byDarren Aronofsky
Produced by
Written byDarren Aronofsky
Starring
CinematographyMatthew Libatique
Edited byAndrew Weisblum
Production
company
Distributed byParamount Pictures
Release date
  • September 5, 2017 (Venice)
  • September 15, 2017 (United States)
Running time
121 minutes[1]
CountryUnited States
LanguageEnglish
Budget$30 million[2]
Box office$44.5 million[2]

 

 
 
Mother 2017 x264 1080p Esub English Hindi THE GOPI SAHI
 

Format                         : Matroska

Format version                 : Version 4

File size                      : 7.01 GiB

Duration                       : 2 h 2 min

Overall bit rate mode          : Variable

Overall bit rate               : 8 221 kb/s

Movie name                     : Mother 2017 GOPI SAHI

Encoded date                   : UTC 2021-07-01 03:40:13


Video

ID                             : 1

Format                         : AVC

Format/Info                    : Advanced Video Codec

Format profile                 : [email protected]

Format settings                : CABAC / 4 Ref Frames

Format settings, CABAC         : Yes

Format settings, Reference fra : 4 frames

Codec ID                       : V_MPEG4/ISO/AVC

Duration                       : 2 h 2 min

Bit rate mode                  : Variable

Bit rate                       : 6 939 kb/s

Maximum bit rate               : 20.0 Mb/s

Width                          : 1 920 pixels

Height                         : 1 080 pixels

Display aspect ratio           : 16:9

Frame rate mode                : Constant

Frame rate                     : 23.976 (24000/1001) FPS

Color space                    : YUV

Chroma subsampling             : 4:2:0

Bit depth                      : 8 bits

Scan type                      : Progressive

Bits/(Pixel*Frame)             : 0.140

Stream size                    : 5.92 GiB (84%)

Title                          : GOPI SAHI

Writing library                : x264 core 148 r2722 1b0121b

 

Audio #1

ID                             : 2

Format                         : E-AC-3

Format/Info                    : Enhanced AC-3

Commercial name                : Dolby Digital Plus

Codec ID                       : A_EAC3

Duration                       : 2 h 2 min

Bit rate mode                  : Constant

Bit rate                       : 640 kb/s

Channel(s)                     : 6 channels

Channel layout                 : L R C LFE Ls Rs

Sampling rate                  : 48.0 kHz

Frame rate                     : 31.250 FPS (1536 SPF)

Compression mode               : Lossy

Stream size                    : 559 MiB (8%)

Title                          : GOPI SAHI

Language                       : Hindi

Service kind                   : Complete Main

Default                        : Yes

Forced                         : No


Audio #2

ID                             : 3

Format                         : E-AC-3

Format/Info                    : Enhanced AC-3

Commercial name                : Dolby Digital Plus

Codec ID                       : A_EAC3

Duration                       : 2 h 2 min

Bit rate mode                  : Constant

Bit rate                       : 640 kb/s

Channel(s)                     : 6 channels

Channel layout                 : L R C LFE Ls Rs

Sampling rate                  : 48.0 kHz

Frame rate                     : 31.250 FPS (1536 SPF)

Compression mode               : Lossy

Stream size                    : 559 MiB (8%)

Title                          : GOPI SAHI

Language                       : English

Service kind                   : Complete Main

Default                        : No

Forced                         : No


Text

ID                             : 4

Format                         : UTF-8

Codec ID                       : S_TEXT/UTF8

Codec ID/Info                  : UTF-8 Plain Text

Duration                       : 1 h 57 min

Bit rate                       : 48 b/s

Count of elements              : 1605

Stream size                    : 41.8 KiB (0%)

Title                          : GOPI SAHI

Language                       : English

Default                        : Yes

Forced                         : No

 

MAGNET

TORRENT

TORRENT 2

GDRIVE FILE COPY

DWONLOAD AUTO START IN 20 SEC

MEDIAFIRE


MEGANZ


DWNLOAD AND ONLINE

ONLINE 720P

Post a Comment

0 Comments