Mother 2017 x264 720p Esub BluRay Dual Audio English Hindi THE GOPI SAHI

 

mother! (2017)

R 09/15/2017 (US) DramaHorrorMystery 2h 1m 
 

Seeing is believing

Overview

A couple's relationship is tested when uninvited guests arrive at their home, disrupting their tranquil existence.

Directed byDarren Aronofsky
Produced by
Written byDarren Aronofsky
Starring
CinematographyMatthew Libatique
Edited byAndrew Weisblum
Production
company
Distributed byParamount Pictures
Release date
  • September 5, 2017 (Venice)
  • September 15, 2017 (United States)
Running time
121 minutes[1]
CountryUnited States
LanguageEnglish
Budget$30 million[2]
Box office$44.5 million[2]

 

 


Mother 2017 x264 720p Esub BluRay Dual Audio English Hindi THE GOPI SAHI


Format                         : Matroska
Format version                 : Version 4
File size                      : 1.09 GiB
Duration                       : 2 h 2 min
Overall bit rate               : 1 283 kb/s
Movie name                     : Mother 2017 GOPI SAHI
Encoded date                   : UTC 2021-06-29 03:43:38

Video
ID                             : 1
Format                         : AVC
Format/Info                    : Advanced Video Codec
Format profile                 : [email protected]
Format settings                : CABAC / 5 Ref Frames
Format settings, CABAC         : Yes
Format settings, Reference fra : 5 frames
Codec ID                       : V_MPEG4/ISO/AVC
Duration                       : 2 h 2 min
Bit rate                       : 899 kb/s
Width                          : 1 280 pixels
Height                         : 536 pixels
Display aspect ratio           : 2.40:1
Frame rate mode                : Constant
Frame rate                     : 23.976 (24000/1001) FPS
Color space                    : YUV
Chroma subsampling             : 4:2:0
Bit depth                      : 8 bits
Scan type                      : Progressive
Bits/(Pixel*Frame)             : 0.055
Stream size                    : 785 MiB (70%)
Title                          : GOPI SAHI
Writing library                : x264 core 157 r2935 545de2f

Audio #1
ID                             : 2
Format                         : AAC LC
Format/Info                    : Advanced Audio Codec Low Complexity
Codec ID                       : A_AAC-2
Duration                       : 2 h 2 min
Bit rate                       : 192 kb/s
Channel(s)                     : 6 channels
Channel layout                 : C L R Ls Rs LFE
Sampling rate                  : 48.0 kHz
Frame rate                     : 46.875 FPS (1024 SPF)
Compression mode               : Lossy
Delay relative to video        : -21 ms
Stream size                    : 166 MiB (15%)
Title                          : GOPI SAHI
Language                       : Hindi
Default                        : Yes
Forced                         : No

Audio #2
ID                             : 3
Format                         : AAC LC
Format/Info                    : Advanced Audio Codec Low Complexity
Codec ID                       : A_AAC-2
Duration                       : 2 h 2 min
Bit rate                       : 192 kb/s
Channel(s)                     : 6 channels
Channel layout                 : C L R Ls Rs LFE
Sampling rate                  : 48.0 kHz
Frame rate                     : 46.875 FPS (1024 SPF)
Compression mode               : Lossy
Delay relative to video        : -21 ms
Stream size                    : 167 MiB (15%)
Title                          : GOPI SAHI
Language                       : English
Default                        : No
Forced                         : No

Text
ID                             : 4
Format                         : UTF-8
Codec ID                       : S_TEXT/UTF8
Codec ID/Info                  : UTF-8 Plain Text
Duration                       : 1 h 57 min
Bit rate                       : 48 b/s
Count of elements              : 1605
Stream size                    : 41.8 KiB (0%)
Title                          : GOPI SAHI
Language                       : English
Default                        : Yes
Forced                         : No


 

 MAGNET

TORRENT

TORRENT 2

GDRIVE FILE COPY


DWONLOAD AUTO START IN 20 SEC


DOWNLOAD AND ONLINE TERABOX LINK

MEDIAFIRE

MEGANZ


RU

DWNLOAD AND ONLINE


ONLINE 720P


Post a Comment

0 Comments