Resort to Love 2021 x264 1080p WebHD Esub 5.1 English Hindi THE GOPI SAHI

 

Resort to Love (2021)

07/29/2021 (US) RomanceComedy 1h 41m 
 

Paradise is about to get complicated.

Overview

Aspiring pop star Erica ends up as the entertainment at her ex-fiancĂ©’s wedding after reluctantly taking a gig at a luxurious island resort while in the wake of a music career meltdown.

 


 Resort to Love 2021 x264 1080p WebHD Esub 5.1 English Hindi THE GOPI SAHI


Format                         : Matroska
Format version                 : Version 4
File size                      : 4.27 GiB
Duration                       : 1 h 41 min
Overall bit rate mode          : Variable
Overall bit rate               : 6 010 kb/s
Movie name                     : Resort to Love 2021 GOPI SAHI
Encoded date                   : UTC 2021-07-29 09:01:06

Video
ID                             : 1
Format                         : AVC
Format/Info                    : Advanced Video Codec
Format profile                 : [email protected]
Format settings                : CABAC / 3 Ref Frames
Format settings, CABAC         : Yes
Format settings, Reference fra : 3 frames
Codec ID                       : V_MPEG4/ISO/AVC
Duration                       : 1 h 41 min
Bit rate mode                  : Variable
Bit rate                       : 4 786 kb/s
Maximum bit rate               : 9 735 kb/s
Width                          : 1 920 pixels
Height                         : 1 080 pixels
Display aspect ratio           : 16:9
Frame rate mode                : Constant
Frame rate                     : 24.000 FPS
Color space                    : YUV
Chroma subsampling             : 4:2:0
Bit depth                      : 8 bits
Scan type                      : Progressive
Bits/(Pixel*Frame)             : 0.096
Stream size                    : 3.27 GiB (77%)
Title                          : GOPI SAHI
Writing library                : x264 core 148 r2722 1b0121b
Forced                         : No

Audio #1
ID                             : 2
Format                         : E-AC-3 JOC
Format/Info                    : Enhanced AC-3 with Joint Object Coding
Commercial name                : Dolby Digital Plus with Dolby Atmos
Codec ID                       : A_EAC3
Duration                       : 1 h 41 min
Bit rate mode                  : Constant
Bit rate                       : 768 kb/s
Channel(s)                     : 6 channels
Channel layout                 : L R C LFE Ls Rs
Sampling rate                  : 48.0 kHz
Frame rate                     : 31.250 FPS (1536 SPF)
Compression mode               : Lossy
Stream size                    : 559 MiB (13%)
Title                          : GOPI SAHI
Language                       : English
Service kind                   : Complete Main
Default                        : No
Forced                         : No
Complexity index               : 16
Number of dynamic objects      : 15
Bed channel count              : 1 channel
Bed channel configuration      : LFE

Audio #2
ID                             : 3
Format                         : E-AC-3
Format/Info                    : Enhanced AC-3
Commercial name                : Dolby Digital Plus
Codec ID                       : A_EAC3
Duration                       : 1 h 41 min
Bit rate mode                  : Constant
Bit rate                       : 640 kb/s
Channel(s)                     : 6 channels
Channel layout                 : L R C LFE Ls Rs
Sampling rate                  : 48.0 kHz
Frame rate                     : 31.250 FPS (1536 SPF)
Compression mode               : Lossy
Stream size                    : 466 MiB (11%)
Title                          : GOPI SAHI
Language                       : Hindi
Service kind                   : Complete Main
Default                        : No
Forced                         : No

Text
Language                       : English



 

MAGNET

TORRENT

TORRENT 2 PRIVATE

G-DRIVE FILE COPY

DOWNLOAD AUTO START IN 20 SEC


MEDIA-FIRE

DROPBOX

MEGA NZ

DOWNLOAD AND ONLINE

ONLINE 720P

 

Post a Comment

0 Comments