The Battleship Island 2017 x264 720p Esub BluRay Dual Audio Korean Hindi THE GOPI SAHI

 

The Battleship Island (2017)

PG-13 07/26/2017 (KR) ActionHistoryDrama 2h 12m 

1945 Hashima. We called it hell on earth.

Overview

During the Japanese colonial era, roughly 400 Korean people, who were forced onto Battleship Island (‘Hashima Island’) to mine for coal, attempt to escape.

Directed byRyoo Seung-wan
Screenplay byRyoo Seung-wan
Produced byCho Sung-min
StarringHwang Jung-min
So Ji-sub
Song Joong-ki
Lee Jung-hyun
CinematographyLee Mo-gae
Edited byKim Jae-bum
Kim Sang-bum
Music byBang Jun-seok
Production
company
Filmmaker R & K
Distributed byCJ Entertainment
Release date
  • 26 July 2017
Running time
132 minutes
CountrySouth Korea
LanguagesKorean
Japanese
BudgetUS$21 million[1]
Box officeUS$47.3 million[2]


 

The Battleship Island 2017 x264 720p Esub BluRay Dual Audio Korean Hindi THE GOPI SAHI


Format                         : Matroska
Format version                 : Version 4
File size                      : 1.02 GiB
Duration                       : 2 h 12 min
Overall bit rate               : 1 101 kb/s
Movie name                     : The Battleship Island 2017 GOPI SAHI
Encoded date                   : UTC 2021-07-16 13:11:48

Video
ID                             : 1
Format                         : AVC
Format/Info                    : Advanced Video Codec
Format profile                 : [email protected]
Format settings                : CABAC / 5 Ref Frames
Format settings, CABAC         : Yes
Format settings, Reference fra : 5 frames
Codec ID                       : V_MPEG4/ISO/AVC
Duration                       : 2 h 12 min
Bit rate                       : 899 kb/s
Width                          : 1 280 pixels
Height                         : 536 pixels
Display aspect ratio           : 2.40:1
Frame rate mode                : Constant
Frame rate                     : 24.000 FPS
Color space                    : YUV
Chroma subsampling             : 4:2:0
Bit depth                      : 8 bits
Scan type                      : Progressive
Bits/(Pixel*Frame)             : 0.055
Stream size                    : 850 MiB (82%)
Title                          : GOPI SAHI
Writing library                : x264 core 157 r2935 545de2f

Audio #1
ID                             : 2
Format                         : AAC LC
Format/Info                    : Advanced Audio Codec Low Complexity
Codec ID                       : A_AAC-2
Duration                       : 2 h 12 min
Bit rate                       : 96.0 kb/s
Channel(s)                     : 2 channels
Channel layout                 : L R
Sampling rate                  : 48.0 kHz
Frame rate                     : 46.875 FPS (1024 SPF)
Compression mode               : Lossy
Delay relative to video        : 2 ms
Stream size                    : 90.8 MiB (9%)
Title                          : GOPI SAHI
Language                       : Hindi
Default                        : Yes
Forced                         : No

Audio #2
ID                             : 3
Format                         : AAC LC
Format/Info                    : Advanced Audio Codec Low Complexity
Codec ID                       : A_AAC-2
Duration                       : 2 h 12 min
Bit rate                       : 96.0 kb/s
Channel(s)                     : 2 channels
Channel layout                 : L R
Sampling rate                  : 48.0 kHz
Frame rate                     : 46.875 FPS (1024 SPF)
Compression mode               : Lossy
Delay relative to video        : -21 ms
Stream size                    : 90.9 MiB (9%)
Title                          : GOPI SAHI
Language                       : Korean
Default                        : No
Forced                         : No

Text
ID                             : 4
Format                         : PGS
Muxing mode                    : zlib
Codec ID                       : S_HDMV/PGS
Codec ID/Info                  : Picture based subtitle format used on BDs/HD-DVDs
Duration                       : 2 h 5 min
Bit rate                       : 24.2 kb/s
Count of elements              : 2344
Stream size                    : 21.7 MiB (2%)
Title                          : GOPI SAHI
Language                       : English
Default                        : No
Forced                         : No

Menu
00:00:00.000                   : :00:00:00.000
00:17:40.083                   : :00:17:40.083
00:36:02.458                   : :00:36:02.458
00:52:31.583                   : :00:52:31.542
01:09:55.875                   : :01:09:55.875
01:25:31.208                   : :01:25:31.208
01:41:04.458                   : :01:41:04.458
01:56:43.292                   : :01:56:43.292




 MAGNET

TORRENT

TORRENT 2 PRIVATE


G-DRIVE FILE COPY

DOWNLOAD AUTO START IN 20 SEC

DOWNLOAD AND ONLINE TERA-BOX LINK

MEDIA-FIRE

MEGA NZ

DOWNLOAD AND ONLINE

ONLINE 720P

 

 

Post a Comment

0 Comments