The Last Mercenary 2021 1080p HDR NF Web HD English Hindi THE GOPI SAHI

The Last Mercenary (2021)

15 07/30/2021 (US) ActionComedy 1h 50m 
 

The daddy of all secret agents.

Overview

A mysterious former secret service agent must urgently return to France when his estranged son is falsely accused of arms and drug trafficking by the government, following a blunder by an overzealous bureaucrat and a mafia operation.

 


 

The Last Mercenary 2021 1080p HDR NF WebHD  English Hindi THE GOPI SAHI


Format                         : Matroska
Format version                 : Version 4
File size                      : 5.32 GiB
Duration                       : 1 h 52 min
Overall bit rate               : 6 769 kb/s
Encoded date                   : UTC 2021-07-30 07:06:24

Video
ID                             : 1
Format                         : HEVC
Format/Info                    : High Efficiency Video Coding
Format profile                 : Main [email protected]@Main
HDR format                     : SMPTE ST 2086, HDR10 compatible
Codec ID                       : V_MPEGH/ISO/HEVC
Duration                       : 1 h 50 min
Bit rate                       : 5 574 kb/s
Width                          : 1 920 pixels
Height                         : 1 080 pixels
Display aspect ratio           : 16:9
Frame rate mode                : Constant
Frame rate                     : 24.000 FPS
Color space                    : YUV
Chroma subsampling             : 4:2:0 (Type 2)
Bit depth                      : 10 bits
Bits/(Pixel*Frame)             : 0.112
Stream size                    : 4.31 GiB (81%)
Default                        : Yes
Forced                         : No
Color range                    : Limited
Color primaries                : BT.2020
Transfer characteristics       : PQ
Matrix coefficients            : BT.2020 non-constant

Audio #1
ID                             : 2
Format                         : E-AC-3
Format/Info                    : Enhanced AC-3
Commercial name                : Dolby Digital Plus
Codec ID                       : A_EAC3
Duration                       : 1 h 52 min
Bit rate mode                  : Constant
Bit rate                       : 640 kb/s
Channel(s)                     : 6 channels
Channel layout                 : L R C LFE Ls Rs
Sampling rate                  : 48.0 kHz
Frame rate                     : 31.250 FPS (1536 SPF)
Compression mode               : Lossy
Stream size                    : 515 MiB (9%)
Title                          : Hindi
Language                       : Hindi
Service kind                   : Complete Main
Default                        : Yes
Forced                         : No

Audio #2
ID                             : 3
Format                         : E-AC-3
Format/Info                    : Enhanced AC-3
Commercial name                : Dolby Digital Plus
Codec ID                       : A_EAC3
Duration                       : 1 h 52 min
Bit rate mode                  : Constant
Bit rate                       : 640 kb/s
Channel(s)                     : 6 channels
Channel layout                 : L R C LFE Ls Rs
Sampling rate                  : 48.0 kHz
Frame rate                     : 31.250 FPS (1536 SPF)
Compression mode               : Lossy
Stream size                    : 515 MiB (9%)
Title                          : English
Language                       : English
Service kind                   : Complete Main
Default                        : No
Forced                         : No


Subtitle: UTF-8 [S: English [eng] (subrip)]
Subtitle: UTF-8 [S: English [eng] (subrip)]
Subtitle: UTF-8 [S: Arabic [ara] (subrip)]
Subtitle: UTF-8 [S: Chinese Simplified [chi] (subrip)]
Subtitle: UTF-8 [S: Chinese Traditional [chi] (subrip)]
Subtitle: UTF-8 [S: Croatian [hrv] (subrip)]
Subtitle: UTF-8 [S: Czech [cze] (subrip)]
Subtitle: UTF-8 [S: Danish [dan] (subrip)]
Subtitle: UTF-8 [S: Dutch [dut] (subrip)]
Subtitle: UTF-8 [S: Finnish [fin] (subrip)]
Subtitle: UTF-8 [S: French [fre] (subrip)]
Subtitle: UTF-8 [S: Forced [fre] (subrip) [forced]]
Subtitle: UTF-8 [S: German [ger] (subrip)]
Subtitle: UTF-8 [S: Greek [gre] (subrip)]
Subtitle: UTF-8 [S: Hebrew [heb] (subrip)]
Subtitle: UTF-8 [S: Hungarian [hun] (subrip)]
Subtitle: UTF-8 [S: Indonesian [ind] (subrip)]
Subtitle: UTF-8 [S: Italian [ita] (subrip)]
Subtitle: UTF-8 [S: Japanese [jpn] (subrip)]
Subtitle: UTF-8 [S: Korean [kor] (subrip)]
Subtitle: UTF-8 [S: Malay [may] (subrip)]
Subtitle: UTF-8 [S: Norwegian Bokmal [nob] (subrip)]
Subtitle: UTF-8 [S: Polish [pol] (subrip)]
Subtitle: UTF-8 [S: Portuguese [por] (subrip)]
Subtitle: UTF-8 [S: Brazilian Portuguese [por] (subrip)]
Subtitle: UTF-8 [S: Romanian [rum] (subrip)]
Subtitle: UTF-8 [S: Russian [rus] (subrip)]
Subtitle: UTF-8 [S: Spanish [spa] (subrip)]
Subtitle: UTF-8 [S: European Spanish [spa] (subrip)]
Subtitle: UTF-8 [S: Swedish [swe] (subrip)]
Subtitle: UTF-8 [S: Thai [tha] (subrip)]
Subtitle: UTF-8 [S: Turkish [tur] (subrip)]
Subtitle: UTF-8 [S: Ukrainian [ukr] (subrip)]
Subtitle: UTF-8 [S: Vietnamese [vie] (subrip)]
Subtitle: UTF-8 [S: No subtitles]

 



 

 MAGNET

TORRENT

TORRENT 2 PRIVATE

G-DRIVE FILE COPY


DOWNLOAD AUTO START IN 20 SEC

MEDIA-FIRE

DROPBOX

MEGA NZ

DOWNLOAD AND ONLINE

ONLINE 720P

 

Post a Comment

0 Comments