The Princess Diaries 2001 x264 1080p Esub English Hindi THE GOPI SAHI

 

The Princess Diaries (2001)

G 08/03/2001 (US) ComedyFamilyRomance 1h 55m 

She rocks. She rules. She reigns.

Overview

A socially awkward but very bright 15-year-old girl being raised by a single mom discovers that she is the princess of a small European country because of the recent death of her long-absent father, who, unknown to her, was the crown prince of Genovia. She must make a choice between continuing the life of a San Francisco teen or stepping up to the throne.

Directed byGarry Marshall
Produced by
Screenplay byGina Wendkos
Based onThe Princess Diaries
by Meg Cabot
Starring
Music byJohn Debney
CinematographyKarl Walter Lindenlaub
Edited byBruce Green
Production
companies
Distributed byBuena Vista Pictures
Release date
Running time
115 minutes[1]
CountryUnited States
LanguageEnglish
Budget$26 million
Box office$165.3 million[2]


 
The Princess Diaries 2001 x264 1080p Esub English Hindi THE GOPI SAHI
 

Format                         : Matroska

Format version                 : Version 4

File size                      : 1.98 GiB

Duration                       : 1 h 55 min

Overall bit rate               : 2 452 kb/s

Movie name                     : The Princess Diaries 2001 x264 1080p Esub English Hindi THE GOPI SAHI

Encoded date                   : UTC 2021-06-20 16:43:54


Video

ID                             : 1

Format                         : AVC

Format/Info                    : Advanced Video Codec

Format profile                 : [email protected]

Format settings                : CABAC / 4 Ref Frames

Format settings, CABAC         : Yes

Format settings, Reference fra : 4 frames

Codec ID                       : V_MPEG4/ISO/AVC

Duration                       : 1 h 55 min

Bit rate                       : 2 318 kb/s

Width                          : 1 920 pixels

Height                         : 1 080 pixels

Display aspect ratio           : 16:9

Frame rate mode                : Constant

Frame rate                     : 23.976 (24000/1001) FPS

Color space                    : YUV

Chroma subsampling             : 4:2:0

Bit depth                      : 8 bits

Scan type                      : Progressive

Bits/(Pixel*Frame)             : 0.047

Stream size                    : 1.87 GiB (95%)

Title                          : GOPI SAHI

Writing library                : x264 core 155 r2917 0a84d98

 

Audio #1

ID                             : 2

Format                         : AAC LC

Format/Info                    : Advanced Audio Codec Low Complexity

Codec ID                       : A_AAC-2

Duration                       : 1 h 55 min

Bit rate                       : 64.4 kb/s

Channel(s)                     : 2 channels

Channel layout                 : L R

Sampling rate                  : 48.0 kHz

Frame rate                     : 46.875 FPS (1024 SPF)

Compression mode               : Lossy

Stream size                    : 53.1 MiB (3%)

Title                          : GOPI SAHI

Language                       : English

Default                        : Yes

Forced                         : No


Audio #2

ID                             : 3

Format                         : AAC LC

Format/Info                    : Advanced Audio Codec Low Complexity

Codec ID                       : A_AAC-2

Duration                       : 1 h 55 min

Bit rate                       : 64.3 kb/s

Channel(s)                     : 2 channels

Channel layout                 : L R

Sampling rate                  : 48.0 kHz

Frame rate                     : 46.875 FPS (1024 SPF)

Compression mode               : Lossy

Stream size                    : 53.1 MiB (3%)

Title                          : GOPI SAHI

Language                       : Hindi

Default                        : No

Forced                         : No


Text

ID                             : 4

Format                         : S_TEXT/WEBVTT

Codec ID                       : S_TEXT/WEBVTT

Duration                       : 1 h 48 min

Bit rate                       : 76 b/s

Count of elements              : 1953

Stream size                    : 61.3 KiB (0%)

Title                          : GOPI SAHI

Language                       : English

Default                        : Yes

Forced                         : No


 

MAGNET

TORRENT

TORRENT 2 PRIVATE

GDRIVE FILE COPY

DWONLOAD AUTO START IN 20 SEC

DOWNLOAD AND ONLINE TERABOX LINK

MEDIAFIRE

MEGANZ

RU

DWNLOAD AND ONLINE


ONLINE 720P

Post a Comment

0 Comments