The Talented Mr. Ripley 1999 x264 720p Esub BluRay Dual Audio English Hindi THE GOPI SAHI

The Talented Mr. Ripley (1999)

R 12/25/1999 (US) ThrillerCrimeDrama 2h 19m 

How far would you go to become someone else?

Overview

Tom Ripley is a calculating young man who believes it's better to be a fake somebody than a real nobody. Opportunity knocks in the form of a wealthy U.S. shipbuilder who hires Tom to travel to Italy to bring back his playboy son, Dickie. Ripley worms his way into the idyllic lives of Dickie and his girlfriend, plunging into a daring scheme of duplicity, lies and murder.

 

Directed byAnthony Minghella
Screenplay byAnthony Minghella
Based onThe Talented Mr. Ripley
by Patricia Highsmith
Produced byWilliam Horberg
Tom Sternberg
Starring
CinematographyJohn Seale
Edited byWalter Murch
Music byGabriel Yared
Production
companies
Mirage Enterprises
Timnick Films
Distributed byParamount Pictures
(North America)
Miramax International
(International; through Buena Vista International[1])
Release date
Running time
139 minutes
CountryUnited States
LanguageEnglish
Budget$40 million[2]
Box office$128.8 million[2]


The Talented Mr. Ripley 1999 x264 720p Esub BluRay Dual Audio English Hindi THE GOPI SAHI


Format                         : Matroska
Format version                 : Version 4
File size                      : 1.27 GiB
Duration                       : 2 h 19 min
Overall bit rate               : 1 305 kb/s
Movie name                     : The Talented Mr. Ripley 1999 GOPI SAHI
Encoded date                   : UTC 2021-07-17 22:05:57

Video
ID                             : 1
Format                         : AVC
Format/Info                    : Advanced Video Codec
Format profile                 : [email protected]
Format settings                : CABAC / 5 Ref Frames
Format settings, CABAC         : Yes
Format settings, Reference fra : 5 frames
Codec ID                       : V_MPEG4/ISO/AVC
Duration                       : 2 h 19 min
Bit rate                       : 899 kb/s
Width                          : 1 280 pixels
Height                         : 688 pixels
Display aspect ratio           : 1.85:1
Frame rate mode                : Constant
Frame rate                     : 23.976 (24000/1001) FPS
Color space                    : YUV
Chroma subsampling             : 4:2:0
Bit depth                      : 8 bits
Scan type                      : Progressive
Bits/(Pixel*Frame)             : 0.043
Stream size                    : 894 MiB (69%)
Title                          : GOPI SAHI
Writing library                : x264 core 157 r2935 545de2f

Audio #1
ID                             : 2
Format                         : AAC LC
Format/Info                    : Advanced Audio Codec Low Complexity
Codec ID                       : A_AAC-2
Duration                       : 2 h 19 min
Bit rate                       : 192 kb/s
Channel(s)                     : 6 channels
Channel layout                 : C L R Ls Rs LFE
Sampling rate                  : 48.0 kHz
Frame rate                     : 46.875 FPS (1024 SPF)
Compression mode               : Lossy
Delay relative to video        : 1 s 392 ms
Stream size                    : 191 MiB (15%)
Title                          : GOPI SAHI
Language                       : Hindi
Default                        : Yes
Forced                         : No

Audio #2
ID                             : 3
Format                         : AAC LC
Format/Info                    : Advanced Audio Codec Low Complexity
Codec ID                       : A_AAC-2
Duration                       : 2 h 19 min
Bit rate                       : 192 kb/s
Channel(s)                     : 6 channels
Channel layout                 : C L R Ls Rs LFE
Sampling rate                  : 48.0 kHz
Frame rate                     : 46.875 FPS (1024 SPF)
Compression mode               : Lossy
Delay relative to video        : -21 ms
Stream size                    : 191 MiB (15%)
Title                          : GOPI SAHI
Language                       : English
Default                        : No
Forced                         : No

Text #1
ID                             : 4
Format                         : PGS
Muxing mode                    : zlib
Codec ID                       : S_HDMV/PGS
Codec ID/Info                  : Picture based subtitle format used on BDs/HD-DVDs
Duration                       : 2 h 18 min
Bit rate                       : 23.5 kb/s
Count of elements              : 3100
Stream size                    : 23.3 MiB (2%)
Title                          : GOPI SAHI
Language                       : Hindi
Default                        : Yes
Forced                         : Yes

Text #2
ID                             : 5
Format                         : PGS
Muxing mode                    : zlib
Codec ID                       : S_HDMV/PGS
Codec ID/Info                  : Picture based subtitle format used on BDs/HD-DVDs
Duration                       : 2 h 18 min
Bit rate                       : 33.8 kb/s
Count of elements              : 3547
Stream size                    : 33.4 MiB (3%)
Title                          : GOPI SAHI
Language                       : English
Default                        : No
Forced                         : No

Menu
00:00:00.000                   : :Chapter 1
00:11:20.889                   : :Chapter 2
00:14:22.195                   : :Chapter 3
00:18:21.559                   : :Chapter 4
00:32:59.478                   : :Chapter 5
00:42:50.693                   : :Chapter 6
00:49:13.868                   : :Chapter 7
00:58:52.070                   : :Chapter 8
01:03:45.655                   : :Chapter 9
01:19:52.121                   : :Chapter 10
01:27:47.095                   : :Chapter 11
01:38:10.843                   : :Chapter 12
01:53:24.840                   : :Chapter 13
01:59:29.537                   : :Chapter 14
02:05:49.917                   : :Chapter 15




MAGNET

TORRENT

TORRENT 2 PRIVATE

G-DRIVE FILE COPY

DOWNLOAD AUTO START IN 20 SEC

DOWNLOAD AND ONLINE TERA-BOX LINK

MEDIA-FIRE

MEGA NZ

DOWNLOAD AND ONLINE


ONLINE 720P

 

Post a Comment

0 Comments