The Tunnel 2019 x264 720p Esub BluRay Dual Audio Norwegian Hindi THE GOPI SAHI

The Tunnel (2019)

12 12/25/2019 (NO) ThrillerDrama 1h 43m 
 

Two ways in - No way out

Overview

When a truck crashes inside a tunnel, people on their way home for Christmas are brutally trapped in a deadly fire. With a blizzard raging outside, and the first responders struggling to get to the accident, it's every man for himself.

 

Directed byPål Øie
Written byKjersti Helen Rasmussen
Produced byEinar Loftesnes, John Einar Hagen
Starring
CinematographySjur Aarthun
Music by
Production
company
Release date
  • December 25, 2019 (Norway)
Running time
105 min.
CountryNorway
LanguageNorwegian

 


The Tunnel 2019 x264 720p Esub BluRay Dual Audio English Hindi THE GOPI SAHI


Format                         : Matroska
Format version                 : Version 4
File size                      : 822 MiB
Duration                       : 1 h 43 min
Overall bit rate               : 1 105 kb/s
Movie name                     : The Tunnel 2019 GOPI SAHI
Encoded date                   : UTC 2021-07-17 22:12:19

Video
ID                             : 1
Format                         : AVC
Format/Info                    : Advanced Video Codec
Format profile                 : [email protected]
Format settings                : CABAC / 5 Ref Frames
Format settings, CABAC         : Yes
Format settings, Reference fra : 5 frames
Codec ID                       : V_MPEG4/ISO/AVC
Duration                       : 1 h 43 min
Bit rate                       : 899 kb/s
Width                          : 1 280 pixels
Height                         : 536 pixels
Display aspect ratio           : 2.40:1
Frame rate mode                : Constant
Frame rate                     : 24.000 FPS
Color space                    : YUV
Chroma subsampling             : 4:2:0
Bit depth                      : 8 bits
Scan type                      : Progressive
Bits/(Pixel*Frame)             : 0.055
Stream size                    : 667 MiB (81%)
Title                          : GOPI SAHI
Writing library                : x264 core 157 r2935 545de2f

Audio #1
ID                             : 2
Format                         : AAC LC
Format/Info                    : Advanced Audio Codec Low Complexity
Codec ID                       : A_AAC-2
Duration                       : 1 h 43 min
Bit rate                       : 96.0 kb/s
Channel(s)                     : 2 channels
Channel layout                 : L R
Sampling rate                  : 48.0 kHz
Frame rate                     : 46.875 FPS (1024 SPF)
Compression mode               : Lossy
Delay relative to video        : 7 s 911 ms
Stream size                    : 71.6 MiB (9%)
Title                          : GOPI SAHI
Language                       : Hindi
Default                        : Yes
Forced                         : No

Audio #2
ID                             : 3
Format                         : AAC LC
Format/Info                    : Advanced Audio Codec Low Complexity
Codec ID                       : A_AAC-2
Duration                       : 1 h 43 min
Bit rate                       : 96.0 kb/s
Channel(s)                     : 2 channels
Channel layout                 : L R
Sampling rate                  : 48.0 kHz
Frame rate                     : 46.875 FPS (1024 SPF)
Compression mode               : Lossy
Delay relative to video        : -21 ms
Stream size                    : 71.5 MiB (9%)
Title                          : GOPI SAHI
Language                       : Norwegian Bokmal
Default                        : No
Forced                         : No

Text
ID                             : 4
Format                         : PGS
Muxing mode                    : zlib
Codec ID                       : S_HDMV/PGS
Codec ID/Info                  : Picture based subtitle format used on BDs/HD-DVDs
Duration                       : 1 h 38 min
Bit rate                       : 29.7 kb/s
Count of elements              : 2025
Stream size                    : 20.9 MiB (3%)
Title                          : GOPI SAHI
Language                       : English
Default                        : No
Forced                         : No

Menu
00:00:00.000                   : :Chapter 1
00:06:01.083                   : :Chapter 2
00:12:57.708                   : :Chapter 3
00:15:24.083                   : :Chapter 4
00:22:21.208                   : :Chapter 5
00:28:57.833                   : :Chapter 6
00:34:08.958                   : :Chapter 7
00:38:43.250                   : :Chapter 8
00:46:45.417                   : :Chapter 9
00:52:41.458                   : :Chapter 10
00:55:15.875                   : :Chapter 11
01:00:32.083                   : :Chapter 12
01:05:34.500                   : :Chapter 13
01:10:25.333                   : :Chapter 14
01:19:42.333                   : :Chapter 15
01:27:37.125                   : :Chapter 16
01:34:21.792                   : :Chapter 17
01:39:11.167                   : :Chapter 18





MAGNET

TORRENT


TORRENT 2 PRIVATE

G-DRIVE FILE COPY


DOWNLOAD AUTO START IN 20 SEC

DOWNLOAD AND ONLINE TERA-BOX LINK


MEDIA-FIRE

MEGA NZ


DOWNLOAD AND ONLINE


ONLINE 720P

 

Post a Comment

0 Comments