Tom and Jerry in Shiver Me Whiskers 2006 x264 1080p BluRay Esub English Hindi THE GOPI SAHI

 

Tom and Jerry: Shiver Me Whiskers (2006)

G 08/21/2006 (US) FamilyAnimationComedy 1h 14m 
 

Overview

Dueling cat-and-mouse team Tom and Jerry hit the high seas on a hunt for buried treasure in this pirate adventure. The tale begins when crew member Tom sets sail with an infamous pirate and finds a treasure map along with stowaway Jerry. The furry swashbucklers race to a deserted island where X marks the spot, but along with battling each other, they must outwit ruthless buccaneers, angry monkeys and a giant octopus to strike it rich.

Directed byScott Jeralds
Written byChristopher Painter
Based onTom and Jerry
by William Hanna and
Joseph Barbera
Produced byTom Minton
Scott Jeralds
StarringWilliam Hanna
Kevin Michael Richardson
Kathy Najimy
Charles Nelson Reilly
Wallace Shawn
Mark Hamill
Dan Castellaneta
Edited byRob DeSales
Music byMark Watters
Production
companies
Distributed byWarner Home Video
Release date
  • August 22, 2006
Running time
74 minutes
CountryUnited States
LanguageEnglish

 


Tom and Jerry in Shiver Me Whiskers 2006 x264 1080p WebHD Esub English Hindi THE GOPI SAHI


Format                         : Matroska
Format version                 : Version 4
File size                      : 1.09 GiB
Duration                       : 1 h 11 min
Overall bit rate               : 2 190 kb/s
Movie name                     : Tom and Jerry in Shiver Me Whiskers 2006 GOPI SAHI
Encoded date                   : UTC 2021-07-27 08:04:27

Video
ID                             : 1
Format                         : AVC
Format/Info                    : Advanced Video Codec
Format profile                 : [email protected]
Format settings                : CABAC / 4 Ref Frames
Format settings, CABAC         : Yes
Format settings, Reference fra : 4 frames
Codec ID                       : V_MPEG4/ISO/AVC
Duration                       : 1 h 11 min
Bit rate                       : 2 002 kb/s
Width                          : 1 920 pixels
Height                         : 1 080 pixels
Display aspect ratio           : 16:9
Frame rate mode                : Constant
Frame rate                     : 23.976 (24000/1001) FPS
Color space                    : YUV
Chroma subsampling             : 4:2:0
Bit depth                      : 8 bits
Scan type                      : Progressive
Bits/(Pixel*Frame)             : 0.040
Stream size                    : 1 021 MiB (91%)
Title                          : GOPI SAHI
Writing library                : x264 core 130 r2273 b3065e6

Audio #1
ID                             : 2
Format                         : AAC LC
Format/Info                    : Advanced Audio Codec Low Complexity
Codec ID                       : A_AAC-2
Duration                       : 1 h 11 min
Bit rate                       : 96.0 kb/s
Channel(s)                     : 2 channels
Channel layout                 : L R
Sampling rate                  : 48.0 kHz
Frame rate                     : 46.875 FPS (1024 SPF)
Compression mode               : Lossy
Delay relative to video        : -125 ms
Stream size                    : 49.1 MiB (4%)
Title                          : GOPI SAHI
Language                       : English
Default                        : No
Forced                         : No

Audio #2
ID                             : 4
Format                         : AAC LC
Format/Info                    : Advanced Audio Codec Low Complexity
Codec ID                       : A_AAC-2
Duration                       : 1 h 11 min
Bit rate                       : 96.0 kb/s
Channel(s)                     : 2 channels
Channel layout                 : L R
Sampling rate                  : 48.0 kHz
Frame rate                     : 46.875 FPS (1024 SPF)
Compression mode               : Lossy
Delay relative to video        : -125 ms
Stream size                    : 49.1 MiB (4%)
Title                          : GOPISAHI
Language                       : Hindi
Default                        : Yes
Forced                         : No

Text
ID                             : 3
Format                         : UTF-8
Codec ID                       : S_TEXT/UTF8
Codec ID/Info                  : UTF-8 Plain Text
Duration                       : 1 h 7 min
Bit rate                       : 25 b/s
Count of elements              : 353
Stream size                    : 12.3 KiB (0%)
Title                          : GOPI SAHI
Language                       : English
Default                        : Yes
Forced                         : No




 MAGNET

TORRENT

TORRENT 2 PRIVATE

G-DRIVE FILE COPY

DOWNLOAD AUTO START IN 20 SEC


DOWNLOAD AND ONLINE TERA-BOX LINK

MEDIA-FIRE

DROPBOX

MEGA NZ


DOWNLOAD AND ONLINE

ONLINE 720P

 

Post a Comment

0 Comments