Trollhunters Rise of the Titans 2021 x264 720p WebHD Esub English Hindi THE GOPI SAHI


Overview

Arcadia may look like an ordinary town, but it lies at the center of magical and mystical lines that makes it a nexus for many battles among otherworldly creatures, including trolls, aliens and wizards. Now, various heroes will team-up in an epic adventure where they must fight the Arcane Order for control over the magic that binds them all together.

 



Trollhunters Rise of the Titans 2021 x264 720p WebHD Esub English Hindi THE GOPI SAHI


Format                         : Matroska
Format version                 : Version 4
File size                      : 975 MiB
Duration                       : 1 h 46 min
Overall bit rate               : 1 281 kb/s
Movie name                     : Trollhunters Rise of the Titans 2021 GOPI SAHI
Encoded date                   : UTC 2021-07-22 05:57:51

Video
ID                             : 1
Format                         : AVC
Format/Info                    : Advanced Video Codec
Format profile                 : [email protected]
Format settings                : CABAC / 5 Ref Frames
Format settings, CABAC         : Yes
Format settings, Reference fra : 5 frames
Codec ID                       : V_MPEG4/ISO/AVC
Duration                       : 1 h 46 min
Bit rate                       : 899 kb/s
Width                          : 1 280 pixels
Height                         : 720 pixels
Display aspect ratio           : 16:9
Frame rate mode                : Constant
Frame rate                     : 23.976 (24000/1001) FPS
Color space                    : YUV
Chroma subsampling             : 4:2:0
Bit depth                      : 8 bits
Scan type                      : Progressive
Bits/(Pixel*Frame)             : 0.041
Stream size                    : 684 MiB (70%)
Title                          : GOPI SAHI
Writing library                : x264 core 157 r2935 545de2f

Audio #1
ID                             : 2
Format                         : AAC LC
Format/Info                    : Advanced Audio Codec Low Complexity
Codec ID                       : A_AAC-2
Duration                       : 1 h 46 min
Bit rate                       : 192 kb/s
Channel(s)                     : 6 channels
Channel layout                 : C L R Ls Rs LFE
Sampling rate                  : 48.0 kHz
Frame rate                     : 46.875 FPS (1024 SPF)
Compression mode               : Lossy
Delay relative to video        : -21 ms
Stream size                    : 144 MiB (15%)
Title                          : GOPI SAHI
Language                       : Hindi
Default                        : Yes
Forced                         : No

Audio #2
ID                             : 3
Format                         : AAC LC
Format/Info                    : Advanced Audio Codec Low Complexity
Codec ID                       : A_AAC-2
Duration                       : 1 h 46 min
Bit rate                       : 192 kb/s
Channel(s)                     : 6 channels
Channel layout                 : C L R Ls Rs LFE
Sampling rate                  : 48.0 kHz
Frame rate                     : 46.875 FPS (1024 SPF)
Compression mode               : Lossy
Delay relative to video        : -21 ms
Stream size                    : 144 MiB (15%)
Title                          : GOPI SAHI
Language                       : English
Default                        : No
Forced                         : No

Text
ID                             : 4
Format                         : UTF-8
Codec ID                       : S_TEXT/UTF8
Codec ID/Info                  : UTF-8 Plain Text
Duration                       : 1 h 38 min
Bit rate                       : 62 b/s
Count of elements              : 1617
Stream size                    : 44.9 KiB (0%)
Title                          : GOPI SAHI
Language                       : English
Default                        : Yes
Forced                         : N

 


 

MAGNET

TORRENT

TORRENT 2 PRIVATE

G-DRIVE FILE COPY

DOWNLOAD AUTO START IN 20 SEC

DOWNLOAD AND ONLINE TERA-BOX LINK

MEDIA-FIRE

DROPBOX

MEGA NZ


DOWNLOAD AND ONLINE

ONLINE 720P


Post a Comment

0 Comments