Vivarium 2019 x264 1080p WebHD Esub English Hindi Telugu Tamil THE GOPI SAHI

Vivarium (2019)

R 03/11/2020 (FR) Science FictionHorrorMystery 1h 37m 
 

You're home. Forever.

Overview

A young woman and her fiancé are in search of the perfect starter home. After following a mysterious real estate agent to a new housing development, the couple finds themselves trapped in a maze of identical houses and forced to raise an otherworldly child.

 

Directed byLorcan Finnegan
Screenplay byGarret Shanley
Story by
  • Garret Shanley
  • Lorcan Finnegan
Produced by
Starring
CinematographyMacGregor
Edited byTony Cranstoun
Music byKristian Eidnes Andersen
Production
companies
Distributed byVertigo Releasing
Release date
  • 18 May 2019 (Cannes)
  • 27 March 2020 (Ireland)
Running time
97 minutes
Countries
LanguageEnglish
BudgetUS$4.3 million
Box office$427,399[2]

 


Vivarium 2019 x264 720p WebHD Esub English Hindi Telugu Tamil THE GOPI SAHI


Format                         : Matroska
Format version                 : Version 4
File size                      : 4.12 GiB
Duration                       : 1 h 34 min
Overall bit rate               : 6 278 kb/s
Movie name                     : Vivarium 2019 GOPI SAHI
Encoded date                   : UTC 2021-07-30 03:19:34

Video
ID                             : 1
Format                         : AVC
Format/Info                    : Advanced Video Codec
Format profile                 : [email protected]
Format settings                : CABAC / 4 Ref Frames
Format settings, CABAC         : Yes
Format settings, Reference fra : 4 frames
Codec ID                       : V_MPEG4/ISO/AVC
Duration                       : 1 h 33 min
Bit rate                       : 5 000 kb/s
Width                          : 1 920 pixels
Height                         : 1 080 pixels
Display aspect ratio           : 16:9
Frame rate mode                : Constant
Frame rate                     : 25.000 FPS
Color space                    : YUV
Chroma subsampling             : 4:2:0
Bit depth                      : 8 bits
Scan type                      : Progressive
Bits/(Pixel*Frame)             : 0.096
Stream size                    : 3.28 GiB (80%)
Title                          : GOPI SAHI
Writing library                : x264 core 161 r3048 b86ae3c


Audio #1
ID                             : 2
Format                         : AAC LC
Format/Info                    : Advanced Audio Codec Low Complexity
Codec ID                       : A_AAC-2
Duration                       : 1 h 33 min
Bit rate                       : 320 kb/s
Channel(s)                     : 6 channels
Channel layout                 : C L R Ls Rs LFE
Sampling rate                  : 48.0 kHz
Frame rate                     : 46.875 FPS (1024 SPF)
Compression mode               : Lossy
Stream size                    : 215 MiB (5%)
Title                          : GOPI SAHI
Language                       : English
Default                        : Yes
Forced                         : No

Audio #2
ID                             : 3
Format                         : AAC LC
Format/Info                    : Advanced Audio Codec Low Complexity
Codec ID                       : A_AAC-2
Duration                       : 1 h 34 min
Bit rate                       : 320 kb/s
Channel(s)                     : 2 channels
Channel layout                 : L R
Sampling rate                  : 48.0 kHz
Frame rate                     : 46.875 FPS (1024 SPF)
Compression mode               : Lossy
Stream size                    : 215 MiB (5%)
Title                          : GOPI SAHI
Language                       : Hindi
Default                        : Yes
Forced                         : No

Audio #3
ID                             : 4
Format                         : AAC LC
Format/Info                    : Advanced Audio Codec Low Complexity
Codec ID                       : A_AAC-2
Duration                       : 1 h 33 min
Bit rate                       : 320 kb/s
Channel(s)                     : 2 channels
Channel layout                 : L R
Sampling rate                  : 48.0 kHz
Frame rate                     : 46.875 FPS (1024 SPF)
Compression mode               : Lossy
Stream size                    : 215 MiB (5%)
Title                          : GOPI SAHI
Language                       : Tamil
Default                        : Yes
Forced                         : No

Audio #4
ID                             : 5
Format                         : AAC LC
Format/Info                    : Advanced Audio Codec Low Complexity
Codec ID                       : A_AAC-2
Duration                       : 1 h 34 min
Bit rate                       : 320 kb/s
Channel(s)                     : 2 channels
Channel layout                 : L R
Sampling rate                  : 48.0 kHz
Frame rate                     : 46.875 FPS (1024 SPF)
Compression mode               : Lossy
Stream size                    : 215 MiB (5%)
Title                          : GOPI SAHI
Language                       : Telugu
Default                        : Yes
Forced                         : No

Text
ID                             : 6
Format                         : UTF-8
Codec ID                       : S_TEXT/UTF8
Codec ID/Info                  : UTF-8 Plain Text
Duration                       : 1 h 21 min
Bit rate                       : 23 b/s
Count of elements              : 609
Stream size                    : 14.0 KiB (0%)
Title                          : GOPI SAHI
Language                       : English
Default                        : Yes
Forced                         : Yes


 MAGNET

TORRENT

TORRENT 2 PRIVATE

G-DRIVE FILE COPY

DOWNLOAD AUTO START IN 20 SEC

MEDIA-FIRE

DROPBOX

MEGA NZ


DOWNLOAD AND ONLINE

ONLINE 720P

 

Post a Comment

0 Comments