White Snake 2019 x264 1080p BluRay Esub English Hindi Chinese THE GOPI SAHI

 

White Snake (2019)

G 01/11/2019 (CN) RomanceAnimationFantasy 1h 39m 

Overview

One day a young woman named Blanca is saved by Xuan, a snake catcher from a nearby village. She has lost her memory, and together they go on a journey to discover her real identity, developing deeper feelings for one another along the way. But as they learn more about her past, they uncover a darker plot of supernatural forces vying for power, with the fate of the world hanging in the balance.

 

Chinese theatrical release poster

Traditional白蛇:緣起
Simplified白蛇:缘起
MandarinBáishé: Yuánqǐ
CantoneseBaak6se4: Jyun4hei2
Directed by
  • Amp Wong
  • Zhao Ji
Written byDamao
Produced by
  • Gary Wang
  • Gillian Zhao
  • Cui Di
Starring
  • Zhang Zhe
  • Yang Tianxiang
Narrated byCheng Yin
Music byGuo Haowei
Production
companies
Distributed byJoy Pictures
Release date
  • January 11, 2019
Running time
99 minutes[1]
CountriesChina[1]
United States[2][3]
LanguageMandarin[4]
BudgetCN¥80 million[5] US$11.2 million[6]
Box officeCN¥447 million[7] US$61,631,778[8][9]


 

 White Snake 2019 x264 1080p BluRay Esub English Hindi Chinese THE GOPI SAHI


Format                         : Matroska
Format version                 : Version 4
File size                      : 1.78 GiB
Duration                       : 1 h 39 min
Overall bit rate               : 2 569 kb/s
Movie name                     : White Snake 2019 GOPI SAHI
Encoded date                   : UTC 2021-07-18 21:15:46

Video
ID                             : 1
Format                         : AVC
Format/Info                    : Advanced Video Codec
Format profile                 : [email protected]
Format settings                : CABAC / 5 Ref Frames
Format settings, CABAC         : Yes
Format settings, Reference fra : 5 frames
Codec ID                       : V_MPEG4/ISO/AVC
Duration                       : 1 h 39 min
Bit rate                       : 1 800 kb/s
Width                          : 1 920 pixels
Height                         : 804 pixels
Display aspect ratio           : 2.40:1
Frame rate mode                : Constant
Frame rate                     : 24.000 FPS
Color space                    : YUV
Chroma subsampling             : 4:2:0
Bit depth                      : 8 bits
Scan type                      : Progressive
Bits/(Pixel*Frame)             : 0.049
Stream size                    : 1.25 GiB (70%)
Title                          : GOPI SAHI
Writing library                : x264 core 157 r2935 545de2f

Audio #1
ID                             : 2
Format                         : AAC LC
Format/Info                    : Advanced Audio Codec Low Complexity
Codec ID                       : A_AAC-2
Duration                       : 1 h 39 min
Bit rate                       : 192 kb/s
Channel(s)                     : 2 channels
Channel layout                 : L R
Sampling rate                  : 48.0 kHz
Frame rate                     : 46.875 FPS (1024 SPF)
Compression mode               : Lossy
Delay relative to video        : -12 ms
Stream size                    : 136 MiB (7%)
Title                          : GOPI SAHI
Language                       : Hindi
Default                        : Yes
Forced                         : No

Audio #2
ID                             : 3
Format                         : AAC LC
Format/Info                    : Advanced Audio Codec Low Complexity
Codec ID                       : A_AAC-2
Duration                       : 1 h 39 min
Bit rate                       : 192 kb/s
Channel(s)                     : 6 channels
Channel layout                 : C L R Ls Rs LFE
Sampling rate                  : 48.0 kHz
Frame rate                     : 46.875 FPS (1024 SPF)
Compression mode               : Lossy
Delay relative to video        : 10 ms
Stream size                    : 136 MiB (7%)
Title                          : GOPI SAHI
Language                       : English
Default                        : No
Forced                         : No

Audio #3
ID                             : 4
Format                         : AAC LC
Format/Info                    : Advanced Audio Codec Low Complexity
Codec ID                       : A_AAC-2
Duration                       : 1 h 39 min
Bit rate                       : 384 kb/s
Channel(s)                     : 6 channels
Channel layout                 : C L R Ls Rs LFE
Sampling rate                  : 48.0 kHz
Frame rate                     : 46.875 FPS (1024 SPF)
Compression mode               : Lossy
Delay relative to video        : -21 ms
Stream size                    : 272 MiB (15%)
Title                          : GOPI SAHI
Language                       : Chinese
Default                        : No
Forced                         : No

Text
ID                             : 5
Format                         : UTF-8
Codec ID                       : S_TEXT/UTF8
Codec ID/Info                  : UTF-8 Plain Text
Duration                       : 1 h 35 min
Bit rate                       : 35 b/s
Count of elements              : 940
Stream size                    : 25.0 KiB (0%)
Title                          : GOPI SAHI
Language                       : English
Default                        : Yes
Forced                         : No

Menu
00:00:00.000                   : :绗?01 绔?
00:04:30.167                   : :绗?02 绔?
00:10:26.708                   : :绗?03 绔?
00:16:53.292                   : :绗?04 绔?
00:22:43.583                   : :绗?05 绔?
00:27:42.625                   : :绗?06 绔?
00:32:41.208                   : :绗?07 绔?
00:38:10.042                   : :绗?08 绔?
00:44:17.625                   : :绗?09 绔?
00:49:38.125                   : :绗?10 绔?
00:54:35.625                   : :绗?11 绔?
00:59:18.417                   : :绗?12 绔?
01:04:12.792                   : :绗?13 绔?
01:08:58.958                   : :绗?14 绔?
01:15:38.167                   : :绗?15 绔?
01:20:22.042                   : :绗?16 绔?
01:27:52.750                   : :绗?17 绔?
01:32:00.125                   : :绗?18 绔?






 MAGNET

TORRENT


TORRENT 2 PRIVATE

G-DRIVE FILE COPY


DOWNLOAD AUTO START IN 20 SEC

DOWNLOAD AND ONLINE TERA-BOX LINK

MEDIA-FIRE

DROPBOX

MEGA NZ


DOWNLOAD AND ONLINE

ONLINE 720P

 

Post a Comment

0 Comments