Wrath of Man 2021 x264 720p Esub BluRay Dual Audio English Hindi THE GOPI SAHI

Wrath of Man (2021)

R 05/07/2021 (US) CrimeActionThriller 1h 59m 
 

A one man army.

Overview

A cold and mysterious new security guard for a Los Angeles cash truck company surprises his co-workers when he unleashes precision skills during a heist. The crew is left wondering who he is and where he came from. Soon, the marksman's ultimate motive becomes clear as he takes dramatic and irrevocable steps to settle a score.

 
Directed byGuy Ritchie
Screenplay by
  • Guy Ritchie
  • Ivan Atkinson
  • Marn Davies
Based onCash Truck
by Nicolas Boukhrief
Produced by
Starring
CinematographyAlan Stewart
Edited byJames Herbert
Music byChris Benstead
Production
companies
Distributed by
Release date
  • April 22, 2021 (International)
  • May 7, 2021 (United States)
Running time
119 minutes[1]
Countries
  • United States
  • United Kingdom
LanguageEnglish
Box office$100.5 million[2][3]

 
Wrath of Man 2021 x264 720p Esub BluRay Dual Audio English Hindi THE GOPI SAHI

Format                         : Matroska
Format version                 : Version 4
File size                      : 944 MiB
Duration                       : 1 h 58 min
Overall bit rate               : 1 110 kb/s
Movie name                     : Wrath of Man 2021 GOPI SAHI
Encoded date                   : UTC 2021-07-24 05:19:18

Video
ID                             : 1
Format                         : AVC
Format/Info                    : Advanced Video Codec
Format profile                 : [email protected]
Format settings                : CABAC / 5 Ref Frames
Format settings, CABAC         : Yes
Format settings, Reference fra : 5 frames
Codec ID                       : V_MPEG4/ISO/AVC
Duration                       : 1 h 58 min
Bit rate                       : 899 kb/s
Width                          : 1 280 pixels
Height                         : 534 pixels
Display aspect ratio           : 2.40:1
Frame rate mode                : Constant
Frame rate                     : 23.976 (24000/1001) FPS
Color space                    : YUV
Chroma subsampling             : 4:2:0
Bit depth                      : 8 bits
Scan type                      : Progressive
Bits/(Pixel*Frame)             : 0.055
Stream size                    : 765 MiB (81%)
Title                          : GOPI SAHI
Writing library                : x264 core 157 r2935 545de2f
Audio #1
ID                             : 2
Format                         : AAC LC
Format/Info                    : Advanced Audio Codec Low Complexity
Codec ID                       : A_AAC-2
Duration                       : 1 h 58 min
Bit rate                       : 96.0 kb/s
Channel(s)                     : 2 channels
Channel layout                 : L R
Sampling rate                  : 48.0 kHz
Frame rate                     : 46.875 FPS (1024 SPF)
Compression mode               : Lossy
Delay relative to video        : -15 ms
Stream size                    : 81.9 MiB (9%)
Title                          : GOPI SAHI
Language                       : Hindi
Default                        : Yes
Forced                         : No

Audio #2
ID                             : 3
Format                         : AAC LC
Format/Info                    : Advanced Audio Codec Low Complexity
Codec ID                       : A_AAC-2
Duration                       : 1 h 58 min
Bit rate                       : 96.0 kb/s
Channel(s)                     : 2 channels
Channel layout                 : L R
Sampling rate                  : 48.0 kHz
Frame rate                     : 46.875 FPS (1024 SPF)
Compression mode               : Lossy
Delay relative to video        : -21 ms
Stream size                    : 81.9 MiB (9%)
Title                          : GOPI SAHI
Language                       : English
Default                        : No
Forced                         : No

Text
ID                             : 4
Format                         : PGS
Muxing mode                    : zlib
Codec ID                       : S_HDMV/PGS
Codec ID/Info                  : Picture based subtitle format used on BDs/HD-DVDs
Duration                       : 1 h 51 min
Bit rate                       : 36.2 kb/s
Count of elements              : 3020
Stream size                    : 28.8 MiB (3%)
Title                          : GOPI SAHI
Language                       : English
Default                        : Yes
Forced                         : No

Menu
00:00:00.000                   : :第 01 章
00:05:55.313                   : :第 02 章
00:13:08.121                   : :第 03 章
00:19:51.524                   : :第 04 章
00:29:30.435                   : :第 05 章
00:38:33.311                   : :第 06 章
00:47:33.684                   : :第 07 章
00:55:34.998                   : :第 08 章
01:02:41.341                   : :第 09 章
01:10:36.190                   : :第 10 章
01:19:03.739                   : :第 11 章
01:25:57.819                   : :第 12 章
01:34:15.525                   : :第 13 章
01:44:05.156                   : :第 14 章
01:53:04.027                   : :第 15 章




MAGNET

TORRENT

TORRENT 2 PRIVATE

G-DRIVE FILE COPY


DOWNLOAD AUTO START IN 20 SEC

DOWNLOAD AND ONLINE TERA-BOX LINK


MEDIA-FIRE


DROPBOX

MEGA NZ

DOWNLOAD AND ONLINE


ONLINE 720P

 

Post a Comment

1 Comments

No Except Any Movie Request Here,Try To Donate Money For Website Then Request, If You No Donate Way Post Request Here ,Nonprofit Services, No Ads, No Any Earning, If Download Link Not Work Post a Comment On Movie Page For Re-upload, Post a Comment On Any Movie Page If You Donate For This Website, Thanks Keep Support. Any Torrent-Magnet Not Reseed,Seed Only First 30 Days,Then Use Google Drive For Download.