Wrong Leela 2021 x264 720p WebHD Hindi THE GOPI SAHI

 

Wrong Leela 2021 x264 720p WebHD Hindi THE GOPI SAHI

 

 


Wrong Leela 2021 x264 720p WebHD Hindi THE GOPI SAHI


Format                         : Matroska
Format version                 : Version 4
File size                      : 730 MiB
Duration                       : 1 h 42 min
Overall bit rate               : 997 kb/s
Movie name                     : Wrong Leela 2021 OPI SAHI
Encoded date                   : UTC 2021-07-20 01:18:12


Video
ID                             : 1
Format                         : AVC
Format/Info                    : Advanced Video Codec
Format profile                 : [email protected]
Format settings                : CABAC / 5 Ref Frames
Format settings, CABAC         : Yes
Format settings, Reference fra : 5 frames
Codec ID                       : V_MPEG4/ISO/AVC
Duration                       : 1 h 42 min
Bit rate                       : 899 kb/s
Width                          : 1 280 pixels
Height                         : 544 pixels
Display aspect ratio           : 2.35:1
Frame rate mode                : Constant
Frame rate                     : 25.000 FPS
Color space                    : YUV
Chroma subsampling             : 4:2:0
Bit depth                      : 8 bits
Scan type                      : Progressive
Bits/(Pixel*Frame)             : 0.052
Stream size                    : 658 MiB (90%)
Title                          : OPI SAHI
Writing library                : x264 core 157 r2935 545de2f

Audio
ID                             : 2
Format                         : AAC LC
Format/Info                    : Advanced Audio Codec Low Complexity
Codec ID                       : A_AAC-2
Duration                       : 1 h 42 min
Bit rate                       : 96.0 kb/s
Channel(s)                     : 2 channels
Channel layout                 : L R
Sampling rate                  : 48.0 kHz
Frame rate                     : 46.875 FPS (1024 SPF)
Compression mode               : Lossy
Delay relative to video        : -101 ms
Stream size                    : 70.7 MiB (10%)
Title                          : GOPI SAHI
Language                       : Hindi
Default                        : Yes
Forced                         : No




 MAGNET

TORRENT

TORRENT 2 PRIVATE


G-DRIVE FILE COPY


DOWNLOAD AUTO START IN 20 SEC


DOWNLOAD AND ONLINE TERA-BOX LINK


MEDIA-FIRE

DROPBOX

MEGA NZ

DOWNLOAD AND ONLINE

ONLINE 720P

 

Post a Comment

0 Comments