1 Indiana Jones and the Raiders of the Lost Ark 1981 x264 720p Esub BluRay Dual Audio English Hindi THE GOPI SAHI

Raiders of the Lost Ark (1981)

12 08/13/1981 (NL) AdventureAction 1h 55m 
 

Indiana Jones - the new hero from the creators of JAWS and STAR WARS.

Overview

When Dr. Indiana Jones – the tweed-suited professor who just happens to be a celebrated archaeologist – is hired by the government to locate the legendary Ark of the Covenant, he finds himself up against the entire Nazi regime.

 
 
Directed bySteven Spielberg
Screenplay byLawrence Kasdan
Story by
Produced byFrank Marshall
Starring
CinematographyDouglas Slocombe
Edited byMichael Kahn
Music byJohn Williams
Production
company
Distributed byParamount Pictures
Release date
  • June 12, 1981
Running time
115 minutes
CountryUnited States
LanguageEnglish
Budget$20 million
Box office$389.9 million
 


Indiana Jones and the Raiders of the Lost Ark 1981 x264 720p Esub BluRay Dual Audio English Hindi THE GOPI SAHI


Format                         : Matroska
Format version                 : Version 4
File size                      : 1.05 GiB
Duration                       : 1 h 55 min
Overall bit rate               : 1 303 kb/s
Movie name                     : Indiana Jones and the Raiders of the Lost Ark 1981 GOPI SAHI
Encoded date                   : UTC 2021-06-10 16:44:38

Video
ID                             : 1
Format                         : AVC
Format/Info                    : Advanced Video Codec
Format profile                 : [email protected]
Format settings                : CABAC / 5 Ref Frames
Format settings, CABAC         : Yes
Format settings, Reference fra : 5 frames
Codec ID                       : V_MPEG4/ISO/AVC
Duration                       : 1 h 55 min
Bit rate                       : 899 kb/s
Width                          : 1 280 pixels
Height                         : 546 pixels
Display aspect ratio           : 2.35:1
Frame rate mode                : Constant
Frame rate                     : 23.976 (24000/1001) FPS
Color space                    : YUV
Chroma subsampling             : 4:2:0
Bit depth                      : 8 bits
Scan type                      : Progressive
Bits/(Pixel*Frame)             : 0.054
Stream size                    : 741 MiB (69%)
Title                          : GOPI SAHI
Writing library                : x264 core 157 r2935 545de2f

Audio #1
ID                             : 2
Format                         : AAC LC
Format/Info                    : Advanced Audio Codec Low Complexity
Codec ID                       : A_AAC-2
Duration                       : 1 h 55 min
Bit rate                       : 192 kb/s
Channel(s)                     : 6 channels
Channel layout                 : C L R Ls Rs LFE
Sampling rate                  : 48.0 kHz
Frame rate                     : 46.875 FPS (1024 SPF)
Compression mode               : Lossy
Delay relative to video        : -21 ms
Stream size                    : 158 MiB (15%)
Title                          : GOPI SAHI
Language                       : Hindi
Default                        : Yes
Forced                         : No

Audio #2
ID                             : 3
Format                         : AAC LC
Format/Info                    : Advanced Audio Codec Low Complexity
Codec ID                       : A_AAC-2
Duration                       : 1 h 55 min
Bit rate                       : 192 kb/s
Channel(s)                     : 6 channels
Channel layout                 : C L R Ls Rs LFE
Sampling rate                  : 48.0 kHz
Frame rate                     : 46.875 FPS (1024 SPF)
Compression mode               : Lossy
Delay relative to video        : -21 ms
Stream size                    : 158 MiB (15%)
Title                          : GOPI SAHI
Language                       : English
Default                        : No
Forced                         : No

Text #1
ID                             : 4
Format                         : PGS
Muxing mode                    : zlib
Codec ID                       : S_HDMV/PGS
Codec ID/Info                  : Picture based subtitle format used on BDs/HD-DVDs
Duration                       : 1 h 48 min
Bit rate                       : 25.2 kb/s
Count of elements              : 1292
Stream size                    : 19.5 MiB (2%)
Title                          : GOPI SAHI
Language                       : Hindi
Default                        : Yes
Forced                         : No

Text #2
ID                             : 5
Format                         : PGS
Muxing mode                    : zlib
Codec ID                       : S_HDMV/PGS
Codec ID/Info                  : Picture based subtitle format used on BDs/HD-DVDs
Duration                       : 1 h 48 min
Bit rate                       : 21.9 kb/s
Count of elements              : 2014
Stream size                    : 17.0 MiB (2%)
Title                          : GOPI SAHI
Language                       : English
Default                        : No
Forced                         : No

Menu
00:00:00.000                   : :South America, 1936
00:03:16.530                   : :The Man With The Hat
00:05:44.636                   : :The Golden Idol
00:09:51.132                   : :Belloq And The Hovitos
00:12:49.352                   : :Archeology Lesson
00:15:23.631                   : :Special Assignment
00:20:27.184                   : :Cautious Guy
00:22:57.293                   : :Nepal: The Raven
00:28:51.355                   : :Fight For The Medallion
00:33:42.479                   : :To Cairo
00:36:23.556                   : :The Marketplace
00:40:04.819                   : :Basket Chase
00:42:16.159                   : :Meeting With Belloq
00:46:41.507                   : :Bad Dates
00:49:32.928                   : :Tanis Dig
00:51:00.933                   : :The Map Room
00:55:11.141                   : :Reunited With Marion
00:58:33.135                   : :Uncovering The Well Of Souls
01:03:05.740                   : :Into The Well Of Souls
01:08:26.144                   : :The Ark Revealed
01:10:25.346                   : :Trapped
01:15:33.279                   : :The Flying Wing
01:22:24.356                   : :Desert Chase
01:25:43.972                   : :Dragged Behind
01:29:57.517                   : :The Bantu Wind
01:34:30.665                   : :Confrontation At Sea
01:38:06.297                   : :The Nazis' Secret Island
01:41:06.060                   : :Indy's Bluff
01:44:06.949                   : :The Ark Ceremony
01:47:01.415                   : :The Power Of The Ark
01:49:05.998                   : :Washington D.C. And End Credits

 




MAGNET

TORRENT

TORRENT 2 PRIVATE


G-DRIVE FILE COPY

DOWNLOAD AUTO START IN 20 SEC

DOWNLOAD AND ONLINE TERA-BOX LINK

MEDIA-FIRE


MEGA NZ


DROPBOX

MAILRU

DOWNLOAD AND ONLINE

ONLINE 720P

 


Post a Comment

0 Comments