2 Indiana Jones and the Temple of Doom 1984 x264 720p Esub BluRay Dual Audio English Hindi THE GOPI SAHI

 

Indiana Jones and the Temple of Doom (1984)

12 07/12/1984 (NL) AdventureAction 1h 58m 

If adventure has a name... it must be Indiana Jones.

Overview

After arriving in India, Indiana Jones is asked by a desperate village to find a mystical stone. He agrees – and stumbles upon a secret cult plotting a terrible plan in the catacombs of an ancient palace.

 

Directed bySteven Spielberg
Screenplay by
Story byGeorge Lucas
Based onCharacters by
George Lucas
Philip Kaufman
Produced byRobert Watts
Starring
CinematographyDouglas Slocombe
Edited byMichael Kahn
Music byJohn Williams
Production
company
Distributed byParamount Pictures
Release date
  • May 8, 1984 (Westwood)
  • May 23, 1984 (United States)
Running time
118 minutes[1]
CountryUnited States
LanguageEnglish
Budget$28.17 million[2]
Box office$333.1 million

 


Indiana Jones and the Temple of Doom 1984 x264 720p Esub BluRay Dual Audio English Hindi THE GOPI SAHI


Format                         : Matroska
Format version                 : Version 4
File size                      : 1.07 GiB
Duration                       : 1 h 58 min
Overall bit rate               : 1 288 kb/s
Movie name                     : Indiana Jones and the Temple of Doom 1984 GOPI SAHI
Encoded date                   : UTC 2021-06-14 05:50:20

Video
ID                             : 1
Format                         : AVC
Format/Info                    : Advanced Video Codec
Format profile                 : [email protected]
Format settings                : CABAC / 5 Ref Frames
Format settings, CABAC         : Yes
Format settings, Reference fra : 5 frames
Codec ID                       : V_MPEG4/ISO/AVC
Duration                       : 1 h 58 min
Bit rate                       : 899 kb/s
Width                          : 1 280 pixels
Height                         : 546 pixels
Display aspect ratio           : 2.35:1
Frame rate mode                : Constant
Frame rate                     : 23.976 (24000/1001) FPS
Color space                    : YUV
Chroma subsampling             : 4:2:0
Bit depth                      : 8 bits
Scan type                      : Progressive
Bits/(Pixel*Frame)             : 0.054
Stream size                    : 761 MiB (70%)
Title                          : GOPI SAHI
Writing library                : x264 core 157 r2935 545de2f

Audio #1
ID                             : 2
Format                         : AAC LC
Format/Info                    : Advanced Audio Codec Low Complexity
Codec ID                       : A_AAC-2
Duration                       : 1 h 58 min
Bit rate                       : 192 kb/s
Channel(s)                     : 6 channels
Channel layout                 : C L R Ls Rs LFE
Sampling rate                  : 48.0 kHz
Frame rate                     : 46.875 FPS (1024 SPF)
Compression mode               : Lossy
Delay relative to video        : -21 ms
Stream size                    : 163 MiB (15%)
Title                          : GOPI SAHI
Language                       : Hindi
Default                        : Yes
Forced                         : No

Audio #2
ID                             : 3
Format                         : AAC LC
Format/Info                    : Advanced Audio Codec Low Complexity
Codec ID                       : A_AAC-2
Duration                       : 1 h 58 min
Bit rate                       : 192 kb/s
Channel(s)                     : 6 channels
Channel layout                 : C L R Ls Rs LFE
Sampling rate                  : 48.0 kHz
Frame rate                     : 46.875 FPS (1024 SPF)
Compression mode               : Lossy
Delay relative to video        : -21 ms
Stream size                    : 163 MiB (15%)
Title                          : GOPI SAHI
Language                       : English
Default                        : No
Forced                         : No

Text #1
ID                             : 4
Format                         : PGS
Muxing mode                    : zlib
Codec ID                       : S_HDMV/PGS
Codec ID/Info                  : Picture based subtitle format used on BDs/HD-DVDs
Duration                       : 16 min 1 s
Bit rate                       : 1 230 b/s
Count of elements              : 18
Stream size                    : 144 KiB (0%)
Title                          : GOPI SAHI
Language                       : Hindi
Default                        : No
Forced                         : Yes

Text #2
ID                             : 5
Format                         : PGS
Muxing mode                    : zlib
Codec ID                       : S_HDMV/PGS
Codec ID/Info                  : Picture based subtitle format used on BDs/HD-DVDs
Duration                       : 1 h 52 min
Bit rate                       : 15.1 kb/s
Count of elements              : 1374
Stream size                    : 12.1 MiB (1%)
Title                          : GOPI SAHI
Language                       : English
Default                        : No
Forced                         : No

Menu
00:00:00.000                   : :Shanghai 1935 / "Anything Goes"
00:02:55.050                   : :Club Obi Wan
00:08:07.278                   : :Melee
00:10:52.861                   : :The Getaway
00:12:51.479                   : :Escape by Air
00:16:00.543                   : :"Nobody's Flying the Plane"
00:19:50.189                   : :Mayapore (The Village)
00:26:28.879                   : :Sankara / Fortune and Glory
00:28:42.971                   : :The Journey
00:31:49.032                   : :The Jungle at Night
00:35:20.493                   : :Approaching Pankot Palace
00:38:56.918                   : :Audience with the Maharajah
00:41:20.520                   : :The Feast
00:46:24.323                   : :Nocturnal Activities
00:50:43.123                   : :Assassin
00:52:06.582                   : :Bugs
00:56:08.365                   : :The Spike Chamber
00:59:57.219                   : :The Temple of Doom
01:05:57.078                   : :Stealing the Stones
01:09:52.021                   : :Captives of the Thuggee
01:13:08.551                   : :The Blood of Kali
01:17:08.290                   : :Willie's Sacrifice
01:24:02.162                   : :The Rescue
01:27:33.331                   : :Freeing the Children
01:29:21.189                   : :The Rock Crusher
01:35:03.448                   : :The Mine Car Chase
01:39:24.000                   : :Deadly Flood
01:41:51.480                   : :The Rope Bridge
01:43:38.796                   : :Standoff
01:49:57.674                   : :Return to Mayapore
01:53:10.909                   : :End Credits




 MAGNET

TORRENT

TORRENT 2 PRIVATE

G-DRIVE FILE COPY

DOWNLOAD AUTO START IN 20 SEC

DOWNLOAD AND ONLINE TERA-BOX LINK

MEDIA-FIRE

MEGA NZ

DROPBOX

MAILRU


DOWNLOAD AND ONLINE

ONLINE 720P

 

Post a Comment

0 Comments