3 Indiana Jones And The Last Crusade 1989 x264 720p Esub BluRay 6.0 Dual Audio English Hindi GOPISAHI

Indiana Jones and the Last Crusade (1989)

12 09/29/1989 (NL) AdventureAction 2h 7m 

The man with the hat is back. And this time, he's bringing his Dad.

Overview

When Dr. Henry Jones Sr. suddenly goes missing while pursuing the Holy Grail, eminent archaeologist Indiana must team up with Marcus Brody, Sallah and Elsa Schneider to follow in his father's footsteps and stop the Nazis from recovering the power of eternal life.

Directed bySteven Spielberg
Screenplay byJeffrey Boam
Story by
Based on
Produced byRobert Watts
Starring
CinematographyDouglas Slocombe
Edited byMichael Kahn
Music byJohn Williams
Production
company
Distributed byParamount Pictures
Release date
  • May 24, 1989 (United States)
Running time
128 minutes
CountryUnited States
LanguageEnglish
Budget$48 million[1]
Box office$474.3 million[1]

 


Indiana Jones And The Last Crusade 1989 x264 720p BluRay Dual Audio English Hindi THE GOPI SAHI.


Format                         : Matroska
Format version                 : Version 4
File size                      : 1.14 GiB
Duration                       : 2 h 6 min
Overall bit rate               : 1 286 kb/s
Movie name                     : Indiana Jones And The Last Crusade 1989 GOPI SAHI
Encoded date                   : UTC 2021-08-04 14:51:40

Video
ID                             : 1
Format                         : AVC
Format/Info                    : Advanced Video Codec
Format profile                 : [email protected]
Format settings                : CABAC / 5 Ref Frames
Format settings, CABAC         : Yes
Format settings, Reference fra : 5 frames
Codec ID                       : V_MPEG4/ISO/AVC
Duration                       : 2 h 6 min
Bit rate                       : 899 kb/s
Width                          : 1 280 pixels
Height                         : 544 pixels
Display aspect ratio           : 2.35:1
Frame rate mode                : Constant
Frame rate                     : 23.976 (24000/1001) FPS
Color space                    : YUV
Chroma subsampling             : 4:2:0
Bit depth                      : 8 bits
Scan type                      : Progressive
Bits/(Pixel*Frame)             : 0.054
Stream size                    : 816 MiB (70%)
Title                          : GOPI SAHI
Writing library                : x264 core 157 r2935 545de2f

Audio #1
ID                             : 2
Format                         : AAC LC
Format/Info                    : Advanced Audio Codec Low Complexity
Codec ID                       : A_AAC-2
Duration                       : 2 h 6 min
Bit rate                       : 192 kb/s
Channel(s)                     : 6 channels
Channel layout                 : L R C Cb Lb Rb
Sampling rate                  : 48.0 kHz
Frame rate                     : 46.875 FPS (1024 SPF)
Compression mode               : Lossy
Stream size                    : 174 MiB (15%)
Title                          : GOPI SAHI
Language                       : Hindi
Default                        : Yes
Forced                         : No

Audio #2
ID                             : 3
Format                         : AAC LC
Format/Info                    : Advanced Audio Codec Low Complexity
Codec ID                       : A_AAC-2
Duration                       : 2 h 6 min
Bit rate                       : 192 kb/s
Channel(s)                     : 6 channels
Channel layout                 : L R C Cb Lb Rb
Sampling rate                  : 48.0 kHz
Frame rate                     : 46.875 FPS (1024 SPF)
Compression mode               : Lossy
Stream size                    : 174 MiB (15%)
Title                          : GOPI SAHI
Language                       : English
Default                        : No
Forced                         : No


 MAGNET

TORRENT

TORRENT 2 PRIVATE

G-DRIVE FILE COPY

DOWNLOAD AUTO START IN 20 SEC


DOWNLOAD AND ONLINE TERA-BOX LINK

MEDIA-FIRE

MEGA NZ


DROPBOX

MAILRU

DOWNLOAD AND ONLINE

ONLINE 720P

 

Post a Comment

0 Comments