4 Indian Jones and the Kingdom of the Crystal Skull 2008 x264 720p Esub BluRay Dual Audio English Hindi THE GOPI SAHI

 

The adventure continues . . .

Overview

Set during the Cold War, the Soviets—led by sword-wielding Irina Spalko—are in search of a crystal skull which has supernatural powers related to a mystical Lost City of Gold. Indy is coerced to head to Peru at the behest of a young man whose friend—and Indy's colleague—Professor Oxley has been captured for his knowledge of the skull's whereabouts.

 

Directed bySteven Spielberg
Screenplay byDavid Koepp
Story by
Based on
Produced byFrank Marshall
Starring
CinematographyJanusz Kamiński
Edited byMichael Kahn
Music byJohn Williams
Production
company
Distributed byParamount Pictures
Release date
  • May 18, 2008 (Cannes)
  • May 22, 2008 (United States)
Running time
122 minutes[1]
CountryUnited States
LanguageEnglish
Budget$185 million[2]
Box office$790.7 million[2]

 


 Indian Jones and the Kingdom of the Crystal Skull 2008 x264 720p Esub BluRay Dual Audio English Hindi THE GOPI SAHI

Format                         : Matroska
Format version                 : Version 4
File size                      : 1.12 GiB
Duration                       : 2 h 2 min
Overall bit rate               : 1 308 kb/s
Movie name                     : Indian .Jones and the Kingdom of the Crystal Skull 2008 GOPI SAHI
Encoded date                   : UTC 2021-06-15 03:43:09

Video
ID                             : 1
Format                         : AVC
Format/Info                    : Advanced Video Codec
Format profile                 : [email protected]
Format settings                : CABAC / 5 Ref Frames
Format settings, CABAC         : Yes
Format settings, Reference fra : 5 frames
Codec ID                       : V_MPEG4/ISO/AVC
Duration                       : 2 h 2 min
Bit rate                       : 899 kb/s
Width                          : 1 280 pixels
Height                         : 534 pixels
Display aspect ratio           : 2.40:1
Frame rate mode                : Constant
Frame rate                     : 23.976 (24000/1001) FPS
Color space                    : YUV
Chroma subsampling             : 4:2:0
Bit depth                      : 8 bits
Scan type                      : Progressive
Bits/(Pixel*Frame)             : 0.055
Stream size                    : 787 MiB (69%)
Title                          : GOPI SAHI
Writing library                : x264 core 157 r2935 545de2f

Audio #1
ID                             : 2
Format                         : AAC LC
Format/Info                    : Advanced Audio Codec Low Complexity
Codec ID                       : A_AAC-2
Duration                       : 2 h 2 min
Bit rate                       : 192 kb/s
Channel(s)                     : 6 channels
Channel layout                 : C L R Ls Rs LFE
Sampling rate                  : 48.0 kHz
Frame rate                     : 46.875 FPS (1024 SPF)
Compression mode               : Lossy
Delay relative to video        : -9 ms
Stream size                    : 168 MiB (15%)
Title                          : GOPI SAHI
Language                       : Hindi
Default                        : Yes
Forced                         : No

Audio #2
ID                             : 3
Format                         : AAC LC
Format/Info                    : Advanced Audio Codec Low Complexity
Codec ID                       : A_AAC-2
Duration                       : 2 h 2 min
Bit rate                       : 192 kb/s
Channel(s)                     : 6 channels
Channel layout                 : C L R Ls Rs LFE
Sampling rate                  : 48.0 kHz
Frame rate                     : 46.875 FPS (1024 SPF)
Compression mode               : Lossy
Delay relative to video        : -21 ms
Stream size                    : 168 MiB (15%)
Title                          : GOPI SAHI
Language                       : English
Default                        : No
Forced                         : No

Text #1
ID                             : 4
Format                         : PGS
Muxing mode                    : zlib
Codec ID                       : S_HDMV/PGS
Codec ID/Info                  : Picture based subtitle format used on BDs/HD-DVDs
Duration                       : 1 h 54 min
Bit rate                       : 35.7 kb/s
Count of elements              : 2098
Stream size                    : 29.3 MiB (3%)
Title                          : GOPI SAHI
Language                       : Hindi
Default                        : Yes
Forced                         : No

Text #2
ID                             : 5
Format                         : PGS
Muxing mode                    : zlib
Codec ID                       : S_HDMV/PGS
Codec ID/Info                  : Picture based subtitle format used on BDs/HD-DVDs
Duration                       : 1 h 54 min
Bit rate                       : 27.3 kb/s
Count of elements              : 2094
Stream size                    : 22.5 MiB (2%)
Title                          : GOPI SAHI
Language                       : English
Default                        : No
Forced                         : No

Menu
00:00:00.000                   : :Chapter 1
00:07:20.190                   : :Chapter 2
00:13:10.206                   : :Chapter 3
00:21:42.635                   : :Chapter 4
00:27:38.073                   : :Chapter 5
00:36:57.215                   : :Chapter 6
00:46:33.624                   : :Chapter 7
00:55:36.166                   : :Chapter 8
01:05:45.233                   : :Chapter 9
01:12:06.781                   : :Chapter 10
01:21:51.657                   : :Chapter 11
01:29:11.763                   : :Chapter 12
01:36:03.091                   : :Chapter 13
01:44:22.006                   : :Chapter 14
01:51:08.078                   : :Chapter 15
01:55:53.738                   : :Chapter 16




 MAGNET

TORRENT

TORRENT 2 PRIVATE

G-DRIVE FILE COPY

DOWNLOAD AUTO START IN 20 SEC

DOWNLOAD AND ONLINE TERA-BOX LINK

MEDIA-FIRE

MEGA NZ

DROPBOX

MAILRU

DOWNLOAD AND ONLINE

ONLINE 720P

 

Post a Comment

0 Comments