Abigail 2019 x264 720p BluRay Dual Audio English Hindi THE GOPI SAHI

Abigail (2019)

PG 08/22/2019 (RU) AdventureFantasyMystery 1h 50m 

Discover your hidden power.

Overview

A young girl Abigail lives in a city whose borders were closed many years ago because of an epidemic of a mysterious disease. Abby's father was one of the sick - and he was taken when she was six years old. Going against the authorities to find his father, Abby learns that her city is actually full of magic. And she discovers in herself extraordinary magical abilities.

 
Directed byAleksandr Boguslavsky
Written byDmitry Zhigalov
Aleksandr Boguslavsky
Aleksey Slushchev
Ilya Ipatov
Produced byYevgeny Melentyev
Viktor Denisyuk
Aleksandr Kurinsky
Vladimir Denisyuk
Natalya Frolova
Starring
CinematographyEduard Moshkovich
Yuriy Nikogosov
Yuriy Korobeynikov
Edited byArtemy Shevchenko
Andrey Anaykin
Music byRyan Otter
Production
company
KinoDanz (KD Studios)
Distributed by20th Century Fox CIS
Release date
  • August 22, 2019
Running time
110 minutes
CountryRussia
LanguagesRussian, English


Abigail 2019 x264 720p BluRay Dual Audio English Hindi THE GOPI SAHI


Format                         : Matroska
Format version                 : Version 4
File size                      : 867 MiB
Duration                       : 1 h 50 min
Overall bit rate               : 1 094 kb/s
Movie name                     : Abigail 2019 GOPI SAHI
Encoded date                   : UTC 2021-08-14 04:32:43

Video
ID                             : 1
Format                         : AVC
Format/Info                    : Advanced Video Codec
Format profile                 : [email protected]
Format settings                : CABAC / 5 Ref Frames
Format settings, CABAC         : Yes
Format settings, Reference fra : 5 frames
Codec ID                       : V_MPEG4/ISO/AVC
Duration                       : 1 h 50 min
Bit rate                       : 899 kb/s
Width                          : 1 280 pixels
Height                         : 538 pixels
Display aspect ratio           : 2.40:1
Frame rate mode                : Constant
Frame rate                     : 24.000 FPS
Color space                    : YUV
Chroma subsampling             : 4:2:0
Bit depth                      : 8 bits
Scan type                      : Progressive
Bits/(Pixel*Frame)             : 0.054
Stream size                    : 712 MiB (82%)
Title                          : GOPI SAHI
Writing library                : x264 core 157 r2935 545de2f

Audio #1
ID                             : 2
Format                         : AAC LC
Format/Info                    : Advanced Audio Codec Low Complexity
Codec ID                       : A_AAC-2
Duration                       : 1 h 50 min
Bit rate                       : 96.0 kb/s
Channel(s)                     : 2 channels
Channel layout                 : L R
Sampling rate                  : 48.0 kHz
Frame rate                     : 46.875 FPS (1024 SPF)
Compression mode               : Lossy
Delay relative to video        : -21 ms
Stream size                    : 76.4 MiB (9%)
Title                          : GOPI SAHI
Language                       : Hindi
Default                        : Yes
Forced                         : No

Audio #2
ID                             : 3
Format                         : AAC LC
Format/Info                    : Advanced Audio Codec Low Complexity
Codec ID                       : A_AAC-2
Duration                       : 1 h 50 min
Bit rate                       : 96.0 kb/s
Channel(s)                     : 2 channels
Channel layout                 : L R
Sampling rate                  : 48.0 kHz
Frame rate                     : 46.875 FPS (1024 SPF)
Compression mode               : Lossy
Delay relative to video        : -21 ms
Stream size                    : 76.5 MiB (9%)
Title                          : GOPI SAHI
Language                       : English
Default                        : No
Forced                         : No


MAGNET

TORRENT

TORRENT 2 PRIVATE

G-DRIVE FILE COPY

DOWNLOAD AUTO START IN 20 SEC

DOWNLOAD AND ONLINE TERA-BOX LINK

MEDIA-FIRE

MEGA NZ

DOSYA

DROPBOX


MAILRU

DOWNLOAD AND ONLINE


ONLINE 720P

Post a Comment

0 Comments