Anastasia 2019 x264 720p WebHD Esub English Hindi THE GOPI SAHI

 

Anastasia: Once Upon a Time (2020)

PG 04/07/2020 (US) FamilyAdventureFantasy 1h 29m 

She's a long way from home.

Overview

Anastasia Romanov escapes through a portal when her family is threatened by Vladimir Lenin, and she finds herself in the year 1988, befriended by a young American girl.

 


Anastasia 2019 x264 720p WebHD Esub English Hindi THE GOPI SAHI

Format                         : Matroska
Format version                 : Version 4
File size                      : 822 MiB
Duration                       : 1 h 29 min
Overall bit rate               : 1 283 kb/s
Movie name                     : Anastasia 2019 GOPI SAHI
Encoded date                   : UTC 2021-08-05 00:59:22
Writing application            : mkvmerge v52.0.0 ('Secret For The Mad') 64-bit
Writing library                : libebml v1.4.1 + libmatroska v1.6.2

Video
ID                             : 1
Format                         : AVC
Format/Info                    : Advanced Video Codec
Format profile                 : [email protected]
Format settings                : CABAC / 5 Ref Frames
Format settings, CABAC         : Yes
Format settings, Reference fra : 5 frames
Codec ID                       : V_MPEG4/ISO/AVC
Duration                       : 1 h 29 min
Bit rate                       : 899 kb/s
Width                          : 1 280 pixels
Height                         : 720 pixels
Display aspect ratio           : 16:9
Frame rate mode                : Constant
Frame rate                     : 23.976 (24000/1001) FPS
Color space                    : YUV
Chroma subsampling             : 4:2:0
Bit depth                      : 8 bits
Scan type                      : Progressive
Bits/(Pixel*Frame)             : 0.041
Stream size                    : 576 MiB (70%)
Title                          : GOPI SAHI
Writing library                : x264 core 157 r2935 545de2f

Audio #1
ID                             : 2
Format                         : AAC LC
Format/Info                    : Advanced Audio Codec Low Complexity
Codec ID                       : A_AAC-2
Duration                       : 1 h 29 min
Bit rate                       : 192 kb/s
Channel(s)                     : 6 channels
Channel layout                 : C L R Ls Rs LFE
Sampling rate                  : 48.0 kHz
Frame rate                     : 46.875 FPS (1024 SPF)
Compression mode               : Lossy
Delay relative to video        : -21 ms
Stream size                    : 122 MiB (15%)
Title                          : GOPI SAHI
Language                       : Hindi
Default                        : Yes
Forced                         : No

Audio #2
ID                             : 3
Format                         : AAC LC
Format/Info                    : Advanced Audio Codec Low Complexity
Codec ID                       : A_AAC-2
Duration                       : 1 h 29 min
Bit rate                       : 192 kb/s
Channel(s)                     : 6 channels
Channel layout                 : C L R Ls Rs LFE
Sampling rate                  : 48.0 kHz
Frame rate                     : 46.875 FPS (1024 SPF)
Compression mode               : Lossy
Delay relative to video        : -21 ms
Stream size                    : 122 MiB (15%)
Title                          : GOPI SAHI
Language                       : English
Default                        : No
Forced                         : No

Text #1
ID                             : 4
Format                         : UTF-8
Codec ID                       : S_TEXT/UTF8
Codec ID/Info                  : UTF-8 Plain Text
Duration                       : 1 h 26 min
Bit rate                       : 43 b/s
Count of elements              : 1002
Stream size                    : 27.3 KiB (0%)
Title                          : GOPI SAHI
Language                       : English
Default                        : Yes
Forced                         : No

Text #2
ID                             : 5
Format                         : UTF-8
Codec ID                       : S_TEXT/UTF8
Codec ID/Info                  : UTF-8 Plain Text
Duration                       : 1 h 22 min
Bit rate                       : 77 b/s
Count of elements              : 739
Stream size                    : 46.8 KiB (0%)
Title                          : GOPI SAHI
Language                       : Hindi
Default                        : No
Forced                         : No





MAGNET

TORRENT

TORRENT 2 PRIVATE

G-DRIVE FILE COPY

DOWNLOAD AUTO START IN 20 SEC


DOWNLOAD AND ONLINE TERA-BOX LINK


MEDIA-FIRE

MEGA NZ

DOSYA

DROPBOX

MAILRU

DOWNLOAD AND ONLINE

ONLINE 720P

 

Post a Comment

0 Comments