Beirut 2018 x264 720p BluRay English Hindi Telugu Tamil THE GOPI SAHI

 

Beirut (2018)

R 04/11/2018 (US) ActionThrillerDrama 1h 50m 

Beirut, 1982: The Paris of the Middle East Was Burning

Overview

In 1980s Beirut, Mason Skiles is a former U.S. diplomat who is called back into service to save a colleague from the group that is possibly responsible for his own family's death. Meanwhile, a CIA field agent who is working under cover at the American embassy is tasked with keeping Mason alive and ensuring that the mission is a success.

Directed byBrad Anderson
Written byTony Gilroy
Produced by
Starring
CinematographyBjörn Charpentier
Edited byAndrew Hafitz
Music byJohn Debney
Production
companies
Distributed byBleecker Street
Release date
  • January 22, 2018 (Sundance)
  • April 11, 2018 (United States)
Running time
109 minutes
CountryUnited States
LanguageEnglish
Box office$7.5 million[1]


Beirut 2018 x264 720p BluRay English Hindi Telugu Tamil THE GOPI SAHI


Format                         : Matroska
Format version                 : Version 4
File size                      : 962 MiB
Duration                       : 1 h 44 min
Overall bit rate               : 1 288 kb/s
Movie name                     : Beirut 2018 GOPI SAHI
Encoded date                   : UTC 2021-08-13 16:38:22

Video
ID                             : 1
Format                         : AVC
Format/Info                    : Advanced Video Codec
Format profile                 : [email protected]
Format settings                : CABAC / 5 Ref Frames
Format settings, CABAC         : Yes
Format settings, Reference fra : 5 frames
Codec ID                       : V_MPEG4/ISO/AVC
Duration                       : 1 h 44 min
Bit rate                       : 899 kb/s
Width                          : 1 280 pixels
Height                         : 534 pixels
Display aspect ratio           : 2.40:1
Frame rate mode                : Constant
Frame rate                     : 25.000 FPS
Color space                    : YUV
Chroma subsampling             : 4:2:0
Bit depth                      : 8 bits
Scan type                      : Progressive
Bits/(Pixel*Frame)             : 0.053
Stream size                    : 671 MiB (70%)
Title                          : GOPI SAHI
Writing library                : x264 core 157 r2935 545de2f

Audio #1
ID                             : 2
Format                         : AAC LC
Format/Info                    : Advanced Audio Codec Low Complexity
Codec ID                       : A_AAC-2
Duration                       : 1 h 44 min
Bit rate                       : 96.0 kb/s
Channel(s)                     : 2 channels
Channel layout                 : L R
Sampling rate                  : 44.1 kHz
Frame rate                     : 43.066 FPS (1024 SPF)
Compression mode               : Lossy
Delay relative to video        : 2 ms
Stream size                    : 71.9 MiB (7%)
Title                          : GOPI SAHI
Language                       : Hindi
Default                        : Yes
Forced                         : No

Audio #2
ID                             : 3
Format                         : AAC LC
Format/Info                    : Advanced Audio Codec Low Complexity
Codec ID                       : A_AAC-2
Duration                       : 1 h 44 min
Bit rate                       : 96.0 kb/s
Channel(s)                     : 2 channels
Channel layout                 : L R
Sampling rate                  : 44.1 kHz
Frame rate                     : 43.066 FPS (1024 SPF)
Compression mode               : Lossy
Delay relative to video        : 2 ms
Stream size                    : 72.0 MiB (7%)
Title                          : GOPI SAHI
Language                       : English
Default                        : No
Forced                         : No

Audio #3
ID                             : 4
Format                         : AAC LC
Format/Info                    : Advanced Audio Codec Low Complexity
Codec ID                       : A_AAC-2
Duration                       : 1 h 44 min
Bit rate                       : 96.0 kb/s
Channel(s)                     : 2 channels
Channel layout                 : L R
Sampling rate                  : 44.1 kHz
Frame rate                     : 43.066 FPS (1024 SPF)
Compression mode               : Lossy
Delay relative to video        : 2 ms
Stream size                    : 71.9 MiB (7%)
Title                          : GOPI SAHI
Language                       : Tamil
Default                        : No
Forced                         : No

Audio #4
ID                             : 5
Format                         : AAC LC
Format/Info                    : Advanced Audio Codec Low Complexity
Codec ID                       : A_AAC-2
Duration                       : 1 h 44 min
Bit rate                       : 96.0 kb/s
Channel(s)                     : 2 channels
Channel layout                 : L R
Sampling rate                  : 44.1 kHz
Frame rate                     : 43.066 FPS (1024 SPF)
Compression mode               : Lossy
Delay relative to video        : 2 ms
Stream size                    : 71.9 MiB (7%)
Title                          : GOPI SAHI
Language                       : Telugu
Default                        : No
Forced                         : No





 MAGNET

TORRENT

TORRENT 2 PRIVATE

G-DRIVE FILE COPY

DOWNLOAD AUTO START IN 20 SEC


DOWNLOAD AND ONLINE TERA-BOX LINK

MEDIA-FIRE

MEGA NZ

DOSYA

DROPBOX

MAILRU

DOWNLOAD AND ONLINE

ONLINE 720P

 

Post a Comment

0 Comments