Bhuj The Pride Of India 2021 x264 720p WebHD Esub Hindi THE GOPI SAHI

Bhuj: The Pride of India (2021)

08/13/2021 (IN) WarHistoryActionDrama
 

The greatest battle ever fought

Overview

Set in the backdrop of the 1971 Indo-Pakistan War, the film tells the story of the IAF Squadron Leader Vijay Karnik, and his bravery, patriotism and determination.

 


Bhuj The Pride Of India 2021 x264 720p WebHD Esub Hindi THE GOPI SAHI


Format                         : Matroska
Format version                 : Version 4
File size                      : 884 MiB
Duration                       : 1 h 53 min
Overall bit rate               : 1 090 kb/s
Movie name                     : Bhuj The Pride Of India 2021 GOPI SAHI
Encoded date                   : UTC 2021-08-14 00:56:04

Video
ID                             : 1
Format                         : AVC
Format/Info                    : Advanced Video Codec
Format profile                 : [email protected]
Format settings                : CABAC / 5 Ref Frames
Format settings, CABAC         : Yes
Format settings, Reference fra : 5 frames
Codec ID                       : V_MPEG4/ISO/AVC
Duration                       : 1 h 53 min
Bit rate                       : 899 kb/s
Width                          : 1 280 pixels
Height                         : 536 pixels
Display aspect ratio           : 2.40:1
Frame rate mode                : Constant
Frame rate                     : 24.000 FPS
Color space                    : YUV
Chroma subsampling             : 4:2:0
Bit depth                      : 8 bits
Scan type                      : Progressive
Bits/(Pixel*Frame)             : 0.055
Stream size                    : 729 MiB (82%)
Title                          : GOPI SAHI
Writing library                : x264 core 157 r2935 545de2f

Audio
ID                             : 2
Format                         : AAC LC
Format/Info                    : Advanced Audio Codec Low Complexity
Codec ID                       : A_AAC-2
Duration                       : 1 h 53 min
Bit rate                       : 192 kb/s
Channel(s)                     : 6 channels
Channel layout                 : C L R Ls Rs LFE
Sampling rate                  : 48.0 kHz
Frame rate                     : 46.875 FPS (1024 SPF)
Compression mode               : Lossy
Delay relative to video        : -21 ms
Stream size                    : 153 MiB (17%)
Title                          : GOPI SAHI
Language                       : Hindi
Default                        : Yes
Forced                         : No

Text
ID                             : 3
Format                         : UTF-8
Codec ID                       : S_TEXT/UTF8
Codec ID/Info                  : UTF-8 Plain Text
Duration                       : 1 h 43 min
Bit rate                       : 40 b/s
Count of elements              : 916
Stream size                    : 31.0 KiB (0%)
Title                          : GOPI SAHI
Language                       : English
Default                        : Yes
Forced                         : No

 




 MAGNET

TORRENT

TORRENT 2 PRIVATE

G-DRIVE FILE COPY

DOWNLOAD AUTO START IN 20 SEC

DOWNLOAD AND ONLINE TERA-BOX LINK

MEDIA-FIRE


MEGA NZ

DOSYA

DROPBOX

MAILRU

DOWNLOAD AND ONLINE

ONLINE 720P

Post a Comment

0 Comments