Black Rain 1989 x264 720p Esub BluRay Dual Audio English Hindi THE GOPI SAHI

Black Rain (1989)

16 01/12/1990 (NL) ActionThrillerCrime 2h 5m 

Their country. Their laws. Their game. His rules.

Overview

Two New York cops get involved in a gang war between members of the Yakuza, the Japanese Mafia. They arrest one of their killers and are ordered to escort him back to Japan. However, in Japan he manages to escape, and as they try to track him down, they get deeper and deeper into the Japanese Mafia scene and they have to learn that they can only win by playing the game—the Japanese way.

Directed byRidley Scott
Written by
Produced byStanley R. Jaffe
Sherry Lansing
Starring
CinematographyJan de Bont
Edited byTom Rolf
Music byHans Zimmer
Production
companies
  • Jaffe-Lansing Productions
  • Pegasus Film Partners
Distributed byParamount Pictures
Release date
  • September 22, 1989
Running time
125 minutes
CountryUnited States
Languages
  • English
  • Japanese
Budget$30 million[1]
Box office$134.2 million


Black Rain 1989 x264 720p Esub BluRay Dual Audio English Hindi THE GOPI SAHI

Format                         : Matroska
Format version                 : Version 4
File size                      : 988 MiB
Duration                       : 2 h 5 min
Overall bit rate               : 1 103 kb/s
Movie name                     : Black Rain 1989 GOPI SAHI
Encoded date                   : UTC 2021-08-11 01:49:01

Video
ID                             : 1
Format                         : AVC
Format/Info                    : Advanced Video Codec
Format profile                 : [email protected]
Format settings                : CABAC / 5 Ref Frames
Format settings, CABAC         : Yes
Format settings, Reference fra : 5 frames
Codec ID                       : V_MPEG4/ISO/AVC
Duration                       : 2 h 5 min
Bit rate                       : 899 kb/s
Width                          : 1 280 pixels
Height                         : 532 pixels
Display aspect ratio           : 2.40:1
Frame rate mode                : Constant
Frame rate                     : 23.976 (24000/1001) FPS
Color space                    : YUV
Chroma subsampling             : 4:2:0
Bit depth                      : 8 bits
Scan type                      : Progressive
Bits/(Pixel*Frame)             : 0.055
Stream size                    : 806 MiB (82%)
Title                          : GOPI SAHI
Writing library                : x264 core 157 r2935 545de2f
Matrix coefficients            : BT.709

Audio #1
ID                             : 2
Format                         : AAC LC
Format/Info                    : Advanced Audio Codec Low Complexity
Codec ID                       : A_AAC-2
Duration                       : 2 h 5 min
Bit rate                       : 96.0 kb/s
Channel(s)                     : 2 channels
Channel layout                 : L R
Sampling rate                  : 48.0 kHz
Frame rate                     : 46.875 FPS (1024 SPF)
Compression mode               : Lossy
Delay relative to video        : -21 ms
Stream size                    : 86.4 MiB (9%)
Title                          : GOPI SAHI
Language                       : Hindi
Default                        : Yes
Forced                         : No

Audio #2
ID                             : 3
Format                         : AAC LC
Format/Info                    : Advanced Audio Codec Low Complexity
Codec ID                       : A_AAC-2
Duration                       : 2 h 5 min
Bit rate                       : 96.0 kb/s
Channel(s)                     : 2 channels
Channel layout                 : L R
Sampling rate                  : 48.0 kHz
Frame rate                     : 46.875 FPS (1024 SPF)
Compression mode               : Lossy
Delay relative to video        : -21 ms
Stream size                    : 86.4 MiB (9%)
Title                          : GOPI SAHI
Language                       : English
Default                        : No
Forced                         : No

Text
ID                             : 4
Format                         : PGS
Muxing mode                    : zlib
Codec ID                       : S_HDMV/PGS
Codec ID/Info                  : Picture based subtitle format used on BDs/HD-DVDs
Duration                       : 1 h 58 min
Bit rate                       : 26.6 kb/s
Count of elements              : 2194
Stream size                    : 22.5 MiB (2%)
Title                          : GOPI SAHI
Language                       : English
Default                        : No
Forced                         : No

Menu
00:00:00.000                   : :Chapter 1
00:02:45.916                   : :Chapter 2
00:05:06.306                   : :Chapter 3
00:11:11.296                   : :Chapter 4
00:14:44.175                   : :Chapter 5
00:18:08.087                   : :Chapter 6
00:20:48.581                   : :Chapter 7
00:23:09.889                   : :Chapter 8
00:31:24.466                   : :Chapter 9
00:46:03.219                   : :Chapter 10
00:49:09.155                   : :Chapter 11
00:53:48.642                   : :Chapter 12
00:55:31.119                   : :Chapter 13
00:57:25.901                   : :Chapter 14
01:02:02.093                   : :Chapter 15
01:07:33.424                   : :Chapter 16
01:12:05.363                   : :Chapter 17
01:15:14.427                   : :Chapter 18
01:19:33.811                   : :Chapter 19
01:23:30.923                   : :Chapter 20
01:26:43.824                   : :Chapter 21
01:32:43.433                   : :Chapter 22
01:36:35.373                   : :Chapter 23
01:40:33.069                   : :Chapter 24
01:47:11.258                   : :Chapter 25
01:51:30.309                   : :Chapter 26
01:57:21.451                   : :Chapter 27
02:01:32.911                   : :Chapter 28




 MAGNET

TORRENT

TORRENT 2 PRIVATE

G-DRIVE FILE COPY

DOWNLOAD AUTO START IN 20 SEC

DOWNLOAD AND ONLINE TERA-BOX LINK


MEDIA-FIRE

 KOO

MEGA NZ

DOSYA

DROPBOX

MAILRU

DOWNLOAD AND ONLINE

ONLINE 720P

 

Post a Comment

0 Comments