Casper 1995 x264 720p Esub BluRay Dual Audio English Hindi THE GOPI SAHI

 

Casper (1995)

6 07/13/1995 (NL) FantasyComedyFamily 1h 40m 
 

Get an afterlife

Overview

Casper is a kind young ghost who peacefully haunts a mansion in Maine. When specialist James Harvey arrives to communicate with Casper and his fellow spirits, he brings along his teenage daughter, Kat. Casper quickly falls in love with Kat, but their budding relationship is complicated not only by his transparent state, but also by his troublemaking apparition uncles and their mischievous antics.

 

Directed byBrad Silberling
Screenplay by
Based onCasper the Friendly Ghost
by Seymour Reit
Joe Oriolo
and Vincent E. Valentine II
Produced byColin Wilson
Starring
CinematographyDean Cundey
Edited byMichael Kahn
Music byJames Horner
Production
companies
Distributed byUniversal Pictures
Release date
  • May 26, 1995
Running time
101 minutes
CountryUnited States
LanguageEnglish
Budget$55 million[1]
Box office$287.9 million[1]

 

 

 

Casper 1995 x264 720p Esub BluRay Dual Audio English Hindi THE GOPI SAHI


Format                         : Matroska
Format version                 : Version 4
File size                      : 784 MiB
Duration                       : 1 h 40 min
Overall bit rate               : 1 095 kb/s
Movie name                     : Casper 1995 GOPI SAHI
Encoded date                   : UTC 2021-08-24 04:41:36

Video
ID                             : 1
Format                         : AVC
Format/Info                    : Advanced Video Codec
Format profile                 : [email protected]
Format settings                : CABAC / 5 Ref Frames
Format settings, CABAC         : Yes
Format settings, Reference fra : 5 frames
Codec ID                       : V_MPEG4/ISO/AVC
Duration                       : 1 h 40 min
Bit rate                       : 899 kb/s
Width                          : 1 280 pixels
Height                         : 694 pixels
Display aspect ratio           : 1.85:1
Frame rate mode                : Constant
Frame rate                     : 23.976 (24000/1001) FPS
Color space                    : YUV
Chroma subsampling             : 4:2:0
Bit depth                      : 8 bits
Scan type                      : Progressive
Bits/(Pixel*Frame)             : 0.042
Stream size                    : 644 MiB (82%)
Title                          : GOPI SAHI
Writing library                : x264 core 157 r2935 545de2f

Audio #1
ID                             : 2
Format                         : AAC LC
Format/Info                    : Advanced Audio Codec Low Complexity
Codec ID                       : A_AAC-2
Duration                       : 1 h 40 min
Bit rate                       : 96.0 kb/s
Channel(s)                     : 2 channels
Channel layout                 : L R
Sampling rate                  : 44.1 kHz
Frame rate                     : 43.066 FPS (1024 SPF)
Compression mode               : Lossy
Delay relative to video        : -23 ms
Stream size                    : 69.1 MiB (9%)
Title                          : GOPI SAHI
Language                       : Hindi
Default                        : Yes
Forced                         : No

Audio #2
ID                             : 3
Format                         : AAC LC
Format/Info                    : Advanced Audio Codec Low Complexity
Codec ID                       : A_AAC-2
Duration                       : 1 h 40 min
Bit rate                       : 96.0 kb/s
Channel(s)                     : 2 channels
Channel layout                 : L R
Sampling rate                  : 48.0 kHz
Frame rate                     : 46.875 FPS (1024 SPF)
Compression mode               : Lossy
Delay relative to video        : -21 ms
Stream size                    : 69.1 MiB (9%)
Title                          : GOPI SAHI
Language                       : English
Default                        : No
Forced                         : No

Text
ID                             : 4
Format                         : UTF-8
Codec ID                       : S_TEXT/UTF8
Codec ID/Info                  : UTF-8 Plain Text
Duration                       : 1 h 34 min
Bit rate                       : 44 b/s
Count of elements              : 1053
Stream size                    : 30.6 KiB (0%)
Title                          : GOPI SAHI
Language                       : English
Default                        : Yes
Forced                         : No

Menu
00:00:00.000                   : :Chapter 1
00:02:44.581                   : :Chapter 2
00:05:16.900                   : :Chapter 3
00:10:37.137                   : :Chapter 4
00:19:23.871                   : :Chapter 5
00:27:11.171                   : :Chapter 6
00:29:44.783                   : :Chapter 7
00:37:31.332                   : :Chapter 8
00:40:56.746                   : :Chapter 9
00:44:26.622                   : :Chapter 10
00:50:20.142                   : :Chapter 11
00:58:32.009                   : :Chapter 12
01:02:35.543                   : :Chapter 13
01:05:25.004                   : :Chapter 14
01:12:26.008                   : :Chapter 15
01:15:19.724                   : :Chapter 16
01:20:29.199                   : :Chapter 17
01:25:21.992                   : :Chapter 18
01:27:12.519                   : :Chapter 19
01:32:17.949                   : :Chapter 20




 MAGNET

TORRENT


TORRENT 2 PRIVATE

G-DRIVE FILE COPY


DOWNLOAD AUTO START IN 20 SEC

DOWNLOAD AND ONLINE TERA-BOX LINK

MEDIA-FIRE

MEGA NZ

DOSYA


TELEGRAM


MEGAUP

DROPBOX

MAILRU

DOWNLOAD AND ONLINE

ONLINE 720P

 

Post a Comment

0 Comments