Do Dooni Panj 2019 x264 720p TV-RIP HCEsub Punjabi THE GOPI SAHI

 

Do Dooni Panj (2019)

01/11/2019 (IN) Drama 2h 12m 

Overview

A young man with a PhD can't get a job, so he sues his school and teachers.

 

Directed byHarry Bhatti
Screenplay byJeeva
Story byJeeva
Produced byBadshah
Uchana Amit
Starring
CinematographyChakravarty
Edited byBharat S. Rawat
Music by
  • Badshah
  • The Boss
  • Meet Sehra
  • Jassi Katyal
Production
company
Apra Films
Distributed byWhite Hill Studios
Release date
  • 11 January 2019 (India)
Running time
132 minutes
CountryIndia
LanguagePunjabi
Budget70 million
Box office50 millio

Do Dooni Panj 2019 x264 720p TV-RIP HCEsub Punjabi THE GOPI SAHI


Format                         : Matroska
Format version                 : Version 4
File size                      : 984 MiB
Duration                       : 2 h 5 min
Overall bit rate               : 1 094 kb/s
Movie name                     : Do Dooni Panj 2019 GOPI SAHI
Encoded date                   : UTC 2021-08-18 08:22:20

Video
ID                             : 1
Format                         : AVC
Format/Info                    : Advanced Video Codec
Format profile                 : [email protected]
Format settings                : CABAC / 5 Ref Frames
Format settings, CABAC         : Yes
Format settings, Reference fra : 5 frames
Codec ID                       : V_MPEG4/ISO/AVC
Duration                       : 2 h 5 min
Bit rate                       : 899 kb/s
Width                          : 1 280 pixels
Height                         : 630 pixels
Display aspect ratio           : 2.032
Frame rate mode                : Constant
Frame rate                     : 23.976 (24000/1001) FPS
Color space                    : YUV
Chroma subsampling             : 4:2:0
Bit depth                      : 8 bits
Scan type                      : Progressive
Bits/(Pixel*Frame)             : 0.046
Stream size                    : 809 MiB (82%)
Title                          : GOPI SAHI
Writing library                : x264 core 157 r2935 545de2f

Audio
ID                             : 2
Format                         : AAC LC
Format/Info                    : Advanced Audio Codec Low Complexity
Codec ID                       : A_AAC-2
Duration                       : 2 h 5 min
Bit rate                       : 192 kb/s
Channel(s)                     : 6 channels
Channel layout                 : C L R Ls Rs LFE
Sampling rate                  : 48.0 kHz
Frame rate                     : 46.875 FPS (1024 SPF)
Compression mode               : Lossy
Delay relative to video        : -21 ms
Stream size                    : 173 MiB (18%)
Title                          : GOPI SAHI
Language                       : Panjabi
Default                        : Yes
Forced                         : No




MAGNET

TORRENT

TORRENT 2 PRIVATE

G-DRIVE FILE COPY


DOWNLOAD AUTO START IN 20 SEC

DOWNLOAD AND ONLINE TERA-BOX LINK


MEDIA-FIRE

MEGA NZ

DOSYA


TELEGRAM

MEGAUP

UPPIT

DROPBOX


MAILRU

DOWNLOAD AND ONLINE

ONLINE 720P



Post a Comment

0 Comments