Downton Abbey 2019 x264 720p Esub BluRay Dual Audio English Hindi THE GOPI SAHI

 

Downton Abbey (2019)

PG 09/12/2019 (NL) DramaRomanceHistory 2h 2m 

We've been expecting you

Overview

The beloved Crawleys and their intrepid staff prepare for the most important moment of their lives. A royal visit from the King and Queen of England will unleash scandal, romance and intrigue that will leave the future of Downton hanging in the balance.

Directed byMichael Engler
Screenplay byJulian Fellowes
Based onDownton Abbey
by Julian Fellowes
Produced by
Starring
CinematographyBen Smithard
Edited byMark Day
Music byJohn Lunn
Production
companies
Distributed by
Release date
  • 9 September 2019 (Leicester Square)
  • 13 September 2019 (United Kingdom)
  • 20 September 2019 (United States)
Running time
122 minutes
Countries
  • United Kingdom
  • United States
LanguageEnglish
Budget$13–20 million[3][4]
Box office$194.3 million[5][6]


Downton Abbey 2019 x264 720p Esub BluRay Dual Audio English Hindi THE GOPI SAHI


Format                         : Matroska
Format version                 : Version 4
File size                      : 1.12 GiB
Duration                       : 2 h 1 min
Overall bit rate               : 1 316 kb/s
Movie name                     : Downton Abbey 2019 GOPI SAHI
Encoded date                   : UTC 2021-08-11 05:40:57

Video
ID                             : 1
Format                         : AVC
Format/Info                    : Advanced Video Codec
Format profile                 : [email protected]
Format settings                : CABAC / 5 Ref Frames
Format settings, CABAC         : Yes
Format settings, Reference fra : 5 frames
Codec ID                       : V_MPEG4/ISO/AVC
Duration                       : 2 h 1 min
Bit rate                       : 899 kb/s
Width                          : 1 280 pixels
Height                         : 536 pixels
Display aspect ratio           : 2.40:1
Frame rate mode                : Constant
Frame rate                     : 23.810 FPS
Color space                    : YUV
Chroma subsampling             : 4:2:0
Bit depth                      : 8 bits
Scan type                      : Progressive
Bits/(Pixel*Frame)             : 0.055
Stream size                    : 782 MiB (68%)
Title                          : GOPI SAHI
Writing library                : x264 core 157 r2935 545de2f

Audio #1
ID                             : 2
Format                         : AAC LC
Format/Info                    : Advanced Audio Codec Low Complexity
Codec ID                       : A_AAC-2
Duration                       : 2 h 1 min
Bit rate                       : 192 kb/s
Channel(s)                     : 6 channels
Channel layout                 : C L R Ls Rs LFE
Sampling rate                  : 48.0 kHz
Frame rate                     : 46.875 FPS (1024 SPF)
Compression mode               : Lossy
Delay relative to video        : 584 ms
Stream size                    : 167 MiB (15%)
Title                          : GOPI SAHI
Language                       : Hindi
Default                        : Yes
Forced                         : No

Audio #2
ID                             : 3
Format                         : AAC LC
Format/Info                    : Advanced Audio Codec Low Complexity
Codec ID                       : A_AAC-2
Duration                       : 2 h 1 min
Bit rate                       : 192 kb/s
Channel(s)                     : 6 channels
Channel layout                 : C L R Ls Rs LFE
Sampling rate                  : 48.0 kHz
Frame rate                     : 46.875 FPS (1024 SPF)
Compression mode               : Lossy
Delay relative to video        : -21 ms
Stream size                    : 167 MiB (15%)
Title                          : GOPI SAHI
Language                       : English
Default                        : No
Forced                         : No

Text #1
ID                             : 4
Format                         : PGS
Muxing mode                    : zlib
Codec ID                       : S_HDMV/PGS
Codec ID/Info                  : Picture based subtitle format used on BDs/HD-DVDs
Duration                       : 2 h 1 min
Bit rate                       : 179 b/s
Count of elements              : 26
Stream size                    : 159 KiB (0%)
Title                          : GOPI SAHI
Language                       : Hindi
Default                        : Yes
Forced                         : Yes

Text #2
ID                             : 5
Format                         : PGS
Muxing mode                    : zlib
Codec ID                       : S_HDMV/PGS
Codec ID/Info                  : Picture based subtitle format used on BDs/HD-DVDs
Duration                       : 1 h 55 min
Bit rate                       : 62.0 kb/s
Count of elements              : 3980
Stream size                    : 51.2 MiB (4%)
Title                          : GOPI SAHI
Language                       : English
Default                        : No
Forced                         : No

Menu
00:00:00.000                   : :00:00:00.000
00:05:50.826                   : :00:05:50.809
00:12:40.536                   : :00:12:40.510
00:18:52.572                   : :00:18:52.548
00:25:24.516                   : :00:25:24.481
00:33:22.686                   : :00:33:22.667
00:39:29.178                   : :00:39:29.158
00:43:48.024                   : :00:43:47.959
00:49:58.716                   : :00:49:58.662
00:57:52.896                   : :00:57:52.678
01:03:34.608                   : :01:03:34.561
01:10:31.332                   : :01:10:31.227
01:17:20.286                   : :01:17:20.135
01:23:27.744                   : :01:23:27.711
01:28:51.648                   : :01:28:51.618
01:34:25.842                   : :01:34:25.827
01:37:59.076                   : :01:37:59.040
01:43:29.826                   : :01:43:29.787
01:51:52.104                   : :01:51:52.080
01:56:59.754                   : :01:56:59.679



 

 MAGNET

TORRENT

TORRENT 2 PRIVATE

G-DRIVE FILE COPY

DOWNLOAD AUTO START IN 20 SEC

DOWNLOAD AND ONLINE TERA-BOX LINK

MEDIA-FIRE

MEGA NZ

DROPBOX


MAILRU


DOWNLOAD AND ONLINE


ONLINE 720P

 

Post a Comment

0 Comments