Evangelion 2.22 You Can Advance 2009 x264 720p WebHD Esub English Hindi Japanese THE GOPI SAHI

 

In the War Between Heaven and Earth, Salvation is Machine.

Overview

Under constant attack by monstrous creatures called Angels that seek to eradicate humankind, U.N. Special Agency NERV introduces two new EVA pilots to help defend the city of Tokyo-3: the mysterious Makinami Mari Illustrous and the intense Asuka Langley Shikinami. Meanwhile, Gendo Ikari and SEELE proceed with a secret project that involves both Rei and Shinji.

Directed by
Written byHideaki Anno
Based onNeon Genesis Evangelion
by Hideaki Anno (story) and Yoshiyuki Sadamoto (characters)
Starring
CinematographyToru Fukushi
Edited byHiroshi Okuda
Music byShirō Sagisu
Production
company
Distributed byThe KlockWorx
Release date
  • June 27, 2009
Running time
108 minutes
CountryJapan
LanguageJapanese
Box office$44 million


Evangelion 2.22 You Can Advance 2009 x264 720p WebHD Esub English Hindi Japanese THE GOPI SAHI


Format                         : Matroska
Format version                 : Version 4
File size                      : 1.16 GiB
Duration                       : 1 h 53 min
Overall bit rate               : 1 472 kb/s
Movie name                     : Evangelion 2.22 You Can Advance 2009 GOPI SAHI
Encoded date                   : UTC 2021-08-13 09:40:04


Video
ID                             : 1
Format                         : AVC
Format/Info                    : Advanced Video Codec
Format profile                 : [email protected]
Format settings                : CABAC / 5 Ref Frames
Format settings, CABAC         : Yes
Format settings, Reference fra : 5 frames
Codec ID                       : V_MPEG4/ISO/AVC
Duration                       : 1 h 53 min
Bit rate                       : 899 kb/s
Width                          : 1 280 pixels
Height                         : 720 pixels
Display aspect ratio           : 16:9
Frame rate mode                : Constant
Frame rate                     : 23.976 (24000/1001) FPS
Color space                    : YUV
Chroma subsampling             : 4:2:0
Bit depth                      : 8 bits
Scan type                      : Progressive
Bits/(Pixel*Frame)             : 0.041
Stream size                    : 728 MiB (61%)
Title                          : GOPI SAHI
Writing library                : x264 core 157 r2935 545de2f

Audio #1
ID                             : 2
Format                         : AAC LC
Format/Info                    : Advanced Audio Codec Low Complexity
Codec ID                       : A_AAC-2
Duration                       : 1 h 53 min
Bit rate                       : 192 kb/s
Channel(s)                     : 6 channels
Channel layout                 : C L R Ls Rs LFE
Sampling rate                  : 48.0 kHz
Frame rate                     : 46.875 FPS (1024 SPF)
Compression mode               : Lossy
Delay relative to video        : -21 ms
Stream size                    : 154 MiB (13%)
Title                          : GOPI SAHI
Language                       : Hindi
Default                        : Yes
Forced                         : No

Audio #2
ID                             : 3
Format                         : AAC LC
Format/Info                    : Advanced Audio Codec Low Complexity
Codec ID                       : A_AAC-2
Duration                       : 1 h 53 min
Bit rate                       : 192 kb/s
Channel(s)                     : 6 channels
Channel layout                 : C L R Ls Rs LFE
Sampling rate                  : 48.0 kHz
Frame rate                     : 46.875 FPS (1024 SPF)
Compression mode               : Lossy
Delay relative to video        : -21 ms
Stream size                    : 154 MiB (13%)
Title                          : GOPI SAHI
Language                       : English
Default                        : No
Forced                         : No

Audio #3
ID                             : 4
Format                         : AAC LC
Format/Info                    : Advanced Audio Codec Low Complexity
Codec ID                       : A_AAC-2
Duration                       : 1 h 53 min
Bit rate                       : 192 kb/s
Channel(s)                     : 6 channels
Channel layout                 : C L R Ls Rs LFE
Sampling rate                  : 48.0 kHz
Frame rate                     : 46.875 FPS (1024 SPF)
Compression mode               : Lossy
Delay relative to video        : -21 ms
Stream size                    : 153 MiB (13%)
Title                          : GOPI SAHI
Language                       : Japanese
Default                        : No
Forced                         : No

Text
ID                             : 5
Format                         : UTF-8
Codec ID                       : S_TEXT/UTF8
Codec ID/Info                  : UTF-8 Plain Text
Duration                       : 1 h 51 min
Bit rate                       : 67 b/s
Count of elements              : 1311
Stream size                    : 55.4 KiB (0%)
Title                          : GOPI SAHI
Language                       : English
Default                        : Yes
Forced                         : No

Menu
00:00:00.000                   : :Studio Logo
00:00:10.010                   : :Studio Logo
00:00:34.034                   : :Scene 3
00:05:44.010                   : :Title Sequence
00:05:50.016                   : :Scene 5
00:13:19.048                   : :Scene 6
00:18:34.113                   : :Scene 7
00:26:33.092                   : :Scene 8
00:34:05.085                   : :Scene 9
00:41:01.000                   : :Scene 10
00:48:29.073                   : :Scene 11
00:53:15.025                   : :Scene 12
01:00:27.040                   : :Scene 13
01:08:17.051                   : :Scene 14
01:16:48.104                   : :Scene 15
01:24:24.017                   : :Scene 16
01:31:33.029                   : :Scene 17
01:38:41.165                   : :Scene 18
01:45:54.014                   : :End Credits




 MAGNET

TORRENT

TORRENT 2 PRIVATE

G-DRIVE FILE COPY

DOWNLOAD AUTO START IN 20 SEC

DOWNLOAD AND ONLINE TERA-BOX LINK

MEDIA-FIRE


MEGA NZ

DROPBOX

MAILRU


DOWNLOAD AND ONLINE


ONLINE 720P



Post a Comment

0 Comments