F9 The Fast Saga 2021 720p WebHD Hindi THE GOPI SAHI

Peter Rabbit 2- The Runaway 2021

F9 (2021)

12 07/01/2021 (NL) ActionCrimeThriller 2h 25m 
 

Justice is coming.

Overview

Dominic Toretto and his crew battle the most skilled assassin and high-performance driver they've ever encountered: his forsaken brother.

 

Directed byJustin Lin
Screenplay by
Story by
  • Justin Lin
  • Alfredo Botello
  • Daniel Casey
Based onCharacters
by Gary Scott Thompson
Produced by
Starring
CinematographyStephen F. Windon[1]
Edited by
  • Dylan Highsmith[2]
  • Kelly Matsumoto[2]
  • Greg D'Auria[2]
Music byBrian Tyler[3]
Production
companies
Distributed byUniversal Pictures
Release date
  • May 19, 2021 (International)
  • June 25, 2021 (United States)
Running time
143 minutes[4]
CountryUnited States
LanguageEnglish
Budget$200–225 million[5][6]
Box office$642.68 million[7][8]


F9 The Fast Saga 2021 720p WebHD  Hindi THE GOPI SAHI

Format                         : Matroska
Format version                 : Version 4
File size                      : 1.30 GiB
Duration                       : 2 h 22 min
Overall bit rate mode          : Variable
Overall bit rate               : 1 309 kb/s
Movie name                     : F9 The Fast Saga 2021 GOPI SAHI

Video
ID                             : 1
Format                         : AVC
Format/Info                    : Advanced Video Codec
Format profile                 : [email protected]
Format settings                : CABAC / 1 Ref Frames
Format settings, CABAC         : Yes
Format settings, Reference fra : 1 frame
Format settings, GOP           : M=1, N=24
Codec ID                       : V_MPEG4/ISO/AVC
Duration                       : 2 h 22 min
Bit rate mode                  : Variable
Bit rate                       : 1 179 kb/s
Maximum bit rate               : 1 800 kb/s
Width                          : 1 280 pixels
Height                         : 544 pixels
Display aspect ratio           : 2.35:1
Frame rate mode                : Constant
Frame rate                     : 24.000 FPS
Color space                    : YUV
Chroma subsampling             : 4:2:0
Bit depth                      : 8 bits
Scan type                      : Progressive
Bits/(Pixel*Frame)             : 0.071
Stream size                    : 1.17 GiB (90%)
Title                          : GOPI SAHI
Language                       : Hindi
Default                        : Yes
Forced                         : No
Color range                    : Limited
Color primaries                : BT.709
Transfer characteristics       : BT.709
Matrix coefficients            : BT.709

Audio
ID                             : 2
Format                         : AAC LC
Format/Info                    : Advanced Audio Codec Low Complexity
Codec ID                       : A_AAC-2
Duration                       : 2 h 22 min
Bit rate                       : 128 kb/s
Channel(s)                     : 2 channels
Channel layout                 : L R
Sampling rate                  : 44.1 kHz
Frame rate                     : 43.066 FPS (1024 SPF)
Compression mode               : Lossy
Stream size                    : 131 MiB (10%)
Title                          : GOPI SAHI
Language                       : Hindi
Default                        : Yes
Forced                         : No




TORRENT

G-DRIVE FILE COPY

DOWNLOAD AUTO START IN 20 SEC

DOWNLOAD AND ONLINE TERA-BOX LINK

MEDIA-FIRE

DROPBOX

MEGA NZ

MAILRU

DOWNLOAD AND ONLINE

ONLINE 720P

 

Post a Comment

1 Comments

No Except Any Movie Request Here,Try To Donate Money For Website Then Request, If You No Donate Way Post Request Here ,Nonprofit Services, No Ads, No Any Earning, If Download Link Not Work Post a Comment On Movie Page For Re-upload, Post a Comment On Any Movie Page If You Donate For This Website, Thanks Keep Support. Any Torrent-Magnet Not Reseed,Seed Only First 30 Days,Then Use Google Drive For Download.