Happy Hardy and Heer 2020 x264 720p WebHD Esub Hindi THE GOPI SAHI

 

Happy Hardy And Heer (2020)

01/31/2020 (IN) ComedyRomance 2h 3m 

Overview

Happy and Heer grow up as best friends, with Happy falling for Heer over the years. When she moves to London, Happy goes with her on the pretext of getting a job. He hopes that she will fall for him too but she soon meets Hardy, who was born and brought up in the UK. Hardy is a self-made entrepreneur while Happy is light-hearted and carefree. Who will Heer choose?c

Directed byRaka
Written byScreenplay:
Sonia Kapoor
Dialogues:
Bunty Rathore
Story byHimesh Reshammiya
Produced by
  • Deepshikha Deshmukh
  • Sabita Manakchand
StarringHimesh Reshammiya
Sonia Mann
CinematographyChandan Kowli
Edited byDeepak Chandra
Music byHimesh Reshammiya
Production
companies
EYKA Films
HR Musik Limited
Distributed byTips Industries
Release date
  • 31 January 2020[1]
Running time
116 mins
CountryIndia
LanguageHindi
Budget70 million
Box officeest.0.13 crore[2]

 

 

 Happy Hardy and Heer 2020 x264 720p WebHD Esub Hindi THE GOPI SAHI


Format                         : Matroska
Format version                 : Version 4
File size                      : 841 MiB
Duration                       : 1 h 58 min
Overall bit rate               : 996 kb/s
Movie name                     : Happy Hardy and Heer 2020 GOPI SAHI
Encoded date                   : UTC 2021-08-14 08:52:53

Video
ID                             : 1
Format                         : AVC
Format/Info                    : Advanced Video Codec
Format profile                 : [email protected]
Format settings                : CABAC / 5 Ref Frames
Format settings, CABAC         : Yes
Format settings, Reference fra : 5 frames
Codec ID                       : V_MPEG4/ISO/AVC
Duration                       : 1 h 58 min
Bit rate                       : 899 kb/s
Width                          : 1 280 pixels
Height                         : 538 pixels
Display aspect ratio           : 2.40:1
Frame rate mode                : Constant
Frame rate                     : 25.000 FPS
Color space                    : YUV
Chroma subsampling             : 4:2:0
Bit depth                      : 8 bits
Scan type                      : Progressive
Bits/(Pixel*Frame)             : 0.052
Stream size                    : 759 MiB (90%)
Title                          : GOPI SAHI
Writing library                : x264 core 157 r2935 545de2f

Audio
ID                             : 2
Format                         : AAC LC
Format/Info                    : Advanced Audio Codec Low Complexity
Codec ID                       : A_AAC-2
Duration                       : 1 h 58 min
Bit rate                       : 96.0 kb/s
Channel(s)                     : 2 channels
Channel layout                 : L R
Sampling rate                  : 48.0 kHz
Frame rate                     : 46.875 FPS (1024 SPF)
Compression mode               : Lossy
Delay relative to video        : -21 ms
Stream size                    : 80.0 MiB (10%)
Title                          : GOPI SAHI
Language                       : Hindi
Default                        : Yes
Forced                         : No

Text
ID                             : 3
Format                         : UTF-8
Codec ID                       : S_TEXT/UTF8
Codec ID/Info                  : UTF-8 Plain Text
Duration                       : 1 h 57 min
Bit rate                       : 74 b/s
Count of elements              : 2040
Stream size                    : 64.3 KiB (0%)
Title                          : GOPI SAHI
Language                       : English
Default                        : Yes
Forced                         : No



 MAGNET

TORRENT

TORRENT 2 PRIVATE

G-DRIVE FILE COPY

DOWNLOAD AUTO START IN 20 SEC


DOWNLOAD AND ONLINE TERA-BOX LINK

MEDIA-FIRE

MEGA NZ


DOSYA

DROPBOX

MAILRU


DOWNLOAD AND ONLINE

ONLINE 720P

 

Post a Comment

0 Comments