Hes All That 2021 x264 720p WebHD Esub English Hindi THE GOPI SAHI

He's All That (2021)

12 08/27/2021 (US) ComedyRomance 1h 31m 

It's his turn for a makeover.

Overview

After being humiliated online, an influencer decides to get back at her now ex by taking a dare to turn the school's biggest loser into a Prom King.

 

Directed byMark Waters
Written byR. Lee Fleming Jr.
Produced by
Starring
CinematographyJohn Guleserian
Edited byTravis Sittard
Music byRolfe Kent
Production
companies
Distributed byNetflix
Release date
  • August 25, 2021 (Hollywood)
  • August 27, 2021 (United States)
Running time
91 minutes
CountryUnited States
LanguageEnglish
Budget$20 million[1]


Hes All That 2021 x264 720p WebHD Esub English Hindi THE GOPI SAHI


Format                         : Matroska
Format version                 : Version 4
File size                      : 1.03 GiB
Duration                       : 1 h 31 min
Overall bit rate               : 1 611 kb/s
Movie name                     : Hes All That 2021 GOPI SAHI
Encoded date                   : UTC 2021-08-28 03:13:30

Video
ID                             : 1
Format                         : AVC
Format/Info                    : Advanced Video Codec
Format profile                 : [email protected]
Format settings                : CABAC / 5 Ref Frames
Format settings, CABAC         : Yes
Format settings, Reference fra : 5 frames
Codec ID                       : V_MPEG4/ISO/AVC
Duration                       : 1 h 28 min
Bit rate                       : 899 kb/s
Width                          : 1 280 pixels
Height                         : 690 pixels
Display aspect ratio           : 1.85:1
Frame rate mode                : Constant
Frame rate                     : 24.000 FPS
Color space                    : YUV
Chroma subsampling             : 4:2:0
Bit depth                      : 8 bits
Scan type                      : Progressive
Bits/(Pixel*Frame)             : 0.042
Stream size                    : 568 MiB (54%)
Title                          : GOPI SAHI
Writing library                : x264 core 157 r2935 545de2f

Audio #1
ID                             : 2
Format                         : AAC LC
Format/Info                    : Advanced Audio Codec Low Complexity
Codec ID                       : A_AAC-2
Duration                       : 1 h 31 min
Bit rate                       : 371 kb/s
Channel(s)                     : 6 channels
Channel layout                 : C L R Ls Rs LFE
Sampling rate                  : 48.0 kHz
Frame rate                     : 46.875 FPS (1024 SPF)
Compression mode               : Lossy
Delay relative to video        : -21 ms
Stream size                    : 244 MiB (23%)
Title                          : GOPI SAHI
Language                       : Hindi
Default                        : Yes
Forced                         : No

Audio #2
ID                             : 3
Format                         : AAC LC
Format/Info                    : Advanced Audio Codec Low Complexity
Codec ID                       : A_AAC-2
Duration                       : 1 h 30 min
Bit rate                       : 374 kb/s
Channel(s)                     : 6 channels
Channel layout                 : C L R Ls Rs LFE
Sampling rate                  : 48.0 kHz
Frame rate                     : 46.875 FPS (1024 SPF)
Compression mode               : Lossy
Delay relative to video        : -21 ms
Stream size                    : 243 MiB (23%)
Title                          : GOPI SAHI
Language                       : English
Default                        : No
Forced                         : No

Text
ID                             : 4
Format                         : UTF-8
Codec ID                       : S_TEXT/UTF8
Codec ID/Info                  : UTF-8 Plain Text
Duration                       : 1 h 24 min
Bit rate                       : 145 b/s
Count of elements              : 1950
Stream size                    : 89.6 KiB (0%)
Title                          : GOPI SAHI
Language                       : English
Default                        : Yes
Forced                         : No
 




MAGNET

TORRENT


TORRENT 2 PRIVATE


G-DRIVE FILE COPY

DOWNLOAD AUTO START IN 20 SEC

DOWNLOAD AND ONLINE TERA-BOX LINK

MEDIA-FIRE

MEGA NZ

DROPBOX

DOWNLOAD AND ONLINE

ONLINE 720P

 

Post a Comment

1 Comments

  1. I Reposted 2 To 3 days aga that gdrive Link not working it's not fixed yet plz fix it

    ReplyDelete

No Except Any Movie Request Here,Try To Donate Money For Website Then Request, If You No Donate Way Post Request Here ,Nonprofit Services, No Ads, No Any Earning, If Download Link Not Work Post a Comment On Movie Page For Re-upload, Post a Comment On Any Movie Page If You Donate For This Website, Thanks Keep Support. Any Torrent-Magnet Not Reseed,Seed Only First 30 Days,Then Use Google Drive For Download.