Hit and Run 2012 x264 1080p Esub BluRay English Hindi THE GOPI SAHI

Hit & Run (2012)

R 08/29/2012 (FR) ActionComedyRomance 1h 40m 

A Comedy That Never Takes Its Foot Off The Gas

Overview

When former getaway driver, Charlie Bronson jeopardises his Witness Protection Plan identity in order to help his girlfriend get to Los Angeles, the feds and Charlie's former gang chase them on the road.

Directed byDavid Palmer
Dax Shepard
Written byDax Shepard
Produced byAndrew Panay
Nate Tuck
Kim Waltrip
Jim Casey
Dax Shepard
StarringDax Shepard
Kristen Bell
Bradley Cooper
Tom Arnold
Kristin Chenoweth
Michael Rosenbaum
Joy Bryant
Ryan Hansen
Beau Bridges
CinematographyBradley Stonesifer
Edited byKeith Croket
Dax Shepard
Music byRobert Mervak
Julian Wass
Production
companies
Primate Pictures
Kim and Jim Productions
Distributed byOpen Road Films[2]
Release date
  • August 22, 2012[1]
Running time
100 minutes[3]
CountryUnited States
LanguageEnglish
Budget$2 million[4]
Box office$16.8 million[5]

 


Hit and Run 2012 x264 1080p Esub BluRay English Hindi THE GOPI SAHI


Format                         : Matroska
Format version                 : Version 4
File size                      : 2.22 GiB
Duration                       : 1 h 40 min
Overall bit rate               : 3 172 kb/s
Movie name                     : Hit and Run 2012 GOPI SAHI
Encoded date                   : UTC 2021-08-01 13:31:21
Writing application            : mkvmerge v59.0.0 ('Shining Star') 64-bit
Writing library                : libebml v1.4.2 + libmatroska v1.6.4

Video
ID                             : 1
Format                         : AVC
Format/Info                    : Advanced Video Codec
Format profile                 : [email protected]
Format settings                : CABAC / 4 Ref Frames
Format settings, CABAC         : Yes
Format settings, Reference fra : 4 frames
Codec ID                       : V_MPEG4/ISO/AVC
Duration                       : 1 h 40 min
Bit rate                       : 2 500 kb/s
Width                          : 1 920 pixels
Height                         : 800 pixels
Display aspect ratio           : 2.40:1
Frame rate mode                : Constant
Frame rate                     : 23.976 (24000/1001) FPS
Original frame rate            : 23.976 (23976/1000) FPS
Color space                    : YUV
Chroma subsampling             : 4:2:0
Bit depth                      : 8 bits
Scan type                      : Progressive
Bits/(Pixel*Frame)             : 0.068
Stream size                    : 1.75 GiB (79%)
Title                          : GOPI SAHI
Writing library                : x264 core 152 r2851M ba24899

Audio #1
ID                             : 2
Format                         : AC-3
Format/Info                    : Audio Coding 3
Commercial name                : Dolby Digital
Codec ID                       : A_AC3
Duration                       : 1 h 40 min
Bit rate mode                  : Constant
Bit rate                       : 224 kb/s
Channel(s)                     : 2 channels
Channel layout                 : L R
Sampling rate                  : 48.0 kHz
Frame rate                     : 31.250 FPS (1536 SPF)
Compression mode               : Lossy
Delay relative to video        : 6 s 500 ms
Stream size                    : 160 MiB (7%)
Title                          : GOPI SAHI
Language                       : Hindi
Service kind                   : Complete Main
Default                        : Yes
Forced                         : No

Audio #2
ID                             : 3
Format                         : AC-3
Format/Info                    : Audio Coding 3
Commercial name                : Dolby Digital
Codec ID                       : A_AC3
Duration                       : 1 h 40 min
Bit rate mode                  : Constant
Bit rate                       : 448 kb/s
Channel(s)                     : 6 channels
Channel layout                 : L R C LFE Ls Rs
Sampling rate                  : 48.0 kHz
Frame rate                     : 31.250 FPS (1536 SPF)
Compression mode               : Lossy
Stream size                    : 322 MiB (14%)
Title                          : GOPI SAHI
Language                       : English
Service kind                   : Complete Main
Default                        : No
Forced                         : No

Text
ID                             : 4
Format                         : UTF-8
Codec ID                       : S_TEXT/UTF8
Codec ID/Info                  : UTF-8 Plain Text
Duration                       : 1 h 34 min
Bit rate                       : 87 b/s
Count of elements              : 1783
Stream size                    : 60.5 KiB (0%)
Title                          : GOPI SAHI
Language                       : English
Default                        : Yes
Forced                         : No




 TORRENT

G-DRIVE FILE COPY

DOWNLOAD AUTO START IN 20 SEC


DOWNLOAD AND ONLINE TERA-BOX LINK


MEDIA-FIRE

MEGA NZ


DOWNLOAD AND ONLINE


ONLINE 720P


Post a Comment

0 Comments