Hit and Run 2012 x264 720p Esub BluRay Dual Audio English Hindi THE GOPI SAHI

 

Hit & Run (2012)

R 08/29/2012 (FR) ActionComedyRomance 1h 40m 
 

A Comedy That Never Takes Its Foot Off The Gas

Overview

When former getaway driver, Charlie Bronson jeopardises his Witness Protection Plan identity in order to help his girlfriend get to Los Angeles, the feds and Charlie's former gang chase them on the road.

Directed byDavid Palmer
Dax Shepard
Written byDax Shepard
Produced byAndrew Panay
Nate Tuck
Kim Waltrip
Jim Casey
Dax Shepard
StarringDax Shepard
Kristen Bell
Bradley Cooper
Tom Arnold
Kristin Chenoweth
Michael Rosenbaum
Joy Bryant
Ryan Hansen
Beau Bridges
CinematographyBradley Stonesifer
Edited byKeith Croket
Dax Shepard
Music byRobert Mervak
Julian Wass
Production
companies
Primate Pictures
Kim and Jim Productions
Distributed byOpen Road Films[2]
Release date
  • August 22, 2012[1]
Running time
100 minutes[3]
CountryUnited States
LanguageEnglish
Budget$2 million[4]
Box office$16.8 million[5]

 

 

 Hit and Run 2012 x264 720p Esub BluRay Dual Audio English Hindi THE GOPI SAHI


Format                         : Matroska
Format version                 : Version 4
File size                      : 785 MiB
Duration                       : 1 h 40 min
Overall bit rate               : 1 094 kb/s
Movie name                     : Hit and Run 2012 GOPI SAHI
Encoded date                   : UTC 2021-08-01 14:23:09

Video
ID                             : 1
Format                         : AVC
Format/Info                    : Advanced Video Codec
Format profile                 : [email protected]
Format settings                : CABAC / 5 Ref Frames
Format settings, CABAC         : Yes
Format settings, Reference fra : 5 frames
Codec ID                       : V_MPEG4/ISO/AVC
Duration                       : 1 h 40 min
Bit rate                       : 899 kb/s
Width                          : 1 280 pixels
Height                         : 534 pixels
Display aspect ratio           : 2.40:1
Frame rate mode                : Constant
Frame rate                     : 23.976 (24000/1001) FPS
Color space                    : YUV
Chroma subsampling             : 4:2:0
Bit depth                      : 8 bits
Scan type                      : Progressive
Bits/(Pixel*Frame)             : 0.055
Stream size                    : 645 MiB (82%)
Title                          : GOPI SAHI
Writing library                : x264 core 157 r2935 545de2f

Audio #1
ID                             : 2
Format                         : AAC LC
Format/Info                    : Advanced Audio Codec Low Complexity
Codec ID                       : A_AAC-2
Duration                       : 1 h 40 min
Bit rate                       : 96.0 kb/s
Channel(s)                     : 2 channels
Channel layout                 : L R
Sampling rate                  : 48.0 kHz
Frame rate                     : 46.875 FPS (1024 SPF)
Compression mode               : Lossy
Delay relative to video        : 6 s 479 ms
Stream size                    : 68.9 MiB (9%)
Title                          : GOPI SAHI
Language                       : Hindi
Default                        : Yes
Forced                         : No

Audio #2
ID                             : 3
Format                         : AAC LC
Format/Info                    : Advanced Audio Codec Low Complexity
Codec ID                       : A_AAC-2
Duration                       : 1 h 40 min
Bit rate                       : 96.0 kb/s
Channel(s)                     : 2 channels
Channel layout                 : L R
Sampling rate                  : 48.0 kHz
Frame rate                     : 46.875 FPS (1024 SPF)
Compression mode               : Lossy
Delay relative to video        : -21 ms
Stream size                    : 69.2 MiB (9%)
Title                          : GOPI SAHI
Language                       : English
Default                        : No
Forced                         : No

Text
ID                             : 4
Format                         : UTF-8
Codec ID                       : S_TEXT/UTF8
Codec ID/Info                  : UTF-8 Plain Text
Duration                       : 1 h 34 min
Bit rate                       : 87 b/s
Count of elements              : 1783
Stream size                    : 60.5 KiB (0%)
Title                          : GOPI SAHI
Language                       : English
Default                        : Yes
Forced                         : No



 
 
 

 

Post a Comment

0 Comments