Innocence 2021 x264 720p WebHD Esub Korean Hindi GOPI SAHI

 

Innocence (2021)

DramaCrime 2h 
 

Overview

Masumiyet follows the story of Bahar, a married mother of two, whose life changes drastically after her 19-year-old daughter falls in love with a wrong man. Her daughter Ela's first love is not a college student her age, but her father's 35-year-old boss, who is about to marry someone else. Bahar, who is trying to save her daughter from this wrong relationship, can not prevent what will happen, no matter what she does. An event that occurs on the day of Ela's 19th birthday party, changes the lives of Bahar and that of her family forever!



Innocence 2021 x264 720p WebHD Esub Korean Hindi  GOPI SAHI


Format                         : Matroska
Format version                 : Version 4
File size                      : 868 MiB
Duration                       : 1 h 50 min
Overall bit rate               : 1 094 kb/s
Movie name                     : Innocence 2021 GOPI SAHI
Encoded date                   : UTC 2021-08-24 07:23:12

Video
ID                             : 1
Format                         : AVC
Format/Info                    : Advanced Video Codec
Format profile                 : [email protected]
Format settings                : CABAC / 5 Ref Frames
Format settings, CABAC         : Yes
Format settings, Reference fra : 5 frames
Codec ID                       : V_MPEG4/ISO/AVC
Duration                       : 1 h 50 min
Bit rate                       : 899 kb/s
Width                          : 1 280 pixels
Height                         : 536 pixels
Display aspect ratio           : 2.40:1
Frame rate mode                : Constant
Frame rate                     : 23.976 (24000/1001) FPS
Color space                    : YUV
Chroma subsampling             : 4:2:0
Bit depth                      : 8 bits
Scan type                      : Progressive
Bits/(Pixel*Frame)             : 0.055
Stream size                    : 712 MiB (82%)
Title                          : GOPI SAHI
Writing library                : x264 core 157 r2935 545de2f

Audio #1
ID                             : 2
Format                         : AAC LC
Format/Info                    : Advanced Audio Codec Low Complexity
Codec ID                       : A_AAC-2
Duration                       : 1 h 50 min
Bit rate                       : 96.0 kb/s
Channel(s)                     : 2 channels
Channel layout                 : L R
Sampling rate                  : 48.0 kHz
Frame rate                     : 46.875 FPS (1024 SPF)
Compression mode               : Lossy
Delay relative to video        : -126 ms
Stream size                    : 76.2 MiB (9%)
Title                          : GOPI SAHI
Language                       : Hindi
Default                        : Yes
Forced                         : No

Audio #2
ID                             : 3
Format                         : AAC LC
Format/Info                    : Advanced Audio Codec Low Complexity
Codec ID                       : A_AAC-2
Duration                       : 1 h 50 min
Bit rate                       : 96.0 kb/s
Channel(s)                     : 2 channels
Channel layout                 : L R
Sampling rate                  : 48.0 kHz
Frame rate                     : 46.875 FPS (1024 SPF)
Compression mode               : Lossy
Delay relative to video        : -126 ms
Stream size                    : 76.4 MiB (9%)
Title                          : GOPI SAHI
Language                       : Korean
Default                        : No
Forced                         : No

Text
ID                             : 4
Format                         : ASS
Codec ID                       : S_TEXT/ASS
Codec ID/Info                  : Advanced Sub Station Alpha
Duration                       : 1 h 45 min
Bit rate                       : 88 b/s
Count of elements              : 1258
Compression mode               : Lossless
Stream size                    : 68.1 KiB (0%)
Title                          : GOPI SAHI
Language                       : English
Default                        : Yes
Forced                         : No





 MAGNET

TORRENT

TORRENT 2 PRIVATE

G-DRIVE FILE COPY

DOWNLOAD AUTO START IN 20 SEC

DOWNLOAD AND ONLINE TERA-BOX LINK

MEDIA-FIRE

MEGA NZ

DOSYA

TELEGRAM

MEGAUP


DROPBOX

MAILRU


DOWNLOAD AND ONLINE

ONLINE 720P


Post a Comment

0 Comments