Killerman 2019 x264 720p BluRay Dual Audio English Hindi THE GOPI SAHI

Killerman (2019)

R 08/30/2019 (US) ActionThriller 1h 52m 

Nothing is as it seems.

Overview

A New York City money launderer desperately searches for answers after waking up with no memory, millions in stolen cash and drugs, and an insane crew of dirty cops violently hunting him down.

 

Directed byMalik Bader
Written byMalik Bader
Produced byRyan R. Johnson
Starring
CinematographyKen Seng
Edited byRick Grayson
Music by
Production
companies
  • Solution Entertainment Group
  • Deeper Water
  • Bader Bros. Pictures
  • Digital Ignition Entertainment
Distributed byBlue Fox Entertainment
Release date
  • August 30, 2019 (United States)
Running time
112 minutes
CountryUnited States
LanguageEnglish
Box office$614,366[1]



 Killerman 2019 x264 720p BluRay Dual Audio English Hindi THE GOPI SAHI


Format                         : Matroska
Format version                 : Version 4
File size                      : 881 MiB
Duration                       : 1 h 52 min
Overall bit rate               : 1 095 kb/s
Movie name                     : Killerman 2019 GOPI SAHI
Encoded date                   : UTC 2021-08-13 20:12:11

Video
ID                             : 1
Format                         : AVC
Format/Info                    : Advanced Video Codec
Format profile                 : [email protected]
Format settings                : CABAC / 5 Ref Frames
Format settings, CABAC         : Yes
Format settings, Reference fra : 5 frames
Codec ID                       : V_MPEG4/ISO/AVC
Duration                       : 1 h 52 min
Bit rate                       : 899 kb/s
Width                          : 1 280 pixels
Height                         : 536 pixels
Display aspect ratio           : 2.40:1
Frame rate mode                : Constant
Frame rate                     : 23.976 (24000/1001) FPS
Color space                    : YUV
Chroma subsampling             : 4:2:0
Bit depth                      : 8 bits
Scan type                      : Progressive
Bits/(Pixel*Frame)             : 0.055
Stream size                    : 723 MiB (82%)
Title                          : GOPI SAHI
Writing library                : x264 core 157 r2935 545de2f

Audio #1
ID                             : 2
Format                         : AAC LC
Format/Info                    : Advanced Audio Codec Low Complexity
Codec ID                       : A_AAC-2
Duration                       : 1 h 52 min
Bit rate                       : 96.0 kb/s
Channel(s)                     : 2 channels
Channel layout                 : L R
Sampling rate                  : 48.0 kHz
Frame rate                     : 46.875 FPS (1024 SPF)
Compression mode               : Lossy
Delay relative to video        : -3 ms
Stream size                    : 77.7 MiB (9%)
Title                          : GOPI SAHI
Language                       : Hindi
Default                        : Yes
Forced                         : No

Audio #2
ID                             : 3
Format                         : AAC LC
Format/Info                    : Advanced Audio Codec Low Complexity
Codec ID                       : A_AAC-2
Duration                       : 1 h 52 min
Bit rate                       : 96.0 kb/s
Channel(s)                     : 2 channels
Channel layout                 : L R
Sampling rate                  : 48.0 kHz
Frame rate                     : 46.875 FPS (1024 SPF)
Compression mode               : Lossy
Delay relative to video        : -21 ms
Stream size                    : 77.6 MiB (9%)
Title                          : GOPI SAHI
Language                       : English
Default                        : No
Forced                         : No




MAGNET

TORRENT

TORRENT 2 PRIVATE

G-DRIVE FILE COPY

DOWNLOAD AUTO START IN 20 SEC


DOWNLOAD AND ONLINE TERA-BOX LINK


MEDIA-FIRE

MEGA NZ

DOSYA

DROPBOX

MAILRU

DOWNLOAD AND ONLINE

ONLINE 720P

 

Post a Comment

0 Comments