Love Actually 2003 x264 720p Esub BluRay Dual Audio English Hindi THE GOPI SAHI

Love Actually (2003)

AL 11/20/2003 (NL) ComedyRomanceDrama 2h 15m 

Love actually is all around.

Overview

'Love Actually' follows the lives of eight very different couples dealing with their love lives, in various loosely and interrelated tales, all set during a frantic month before Christmas in London, England.

 

Directed byRichard Curtis
Written byRichard Curtis
Produced by
Starring
CinematographyMichael Coulter
Edited byNick Moore
Music byCraig Armstrong
Production
companies
Distributed byUniversal Pictures (Worldwide)
Mars Distribution (France)[1]
Release date
  • 14 November 2003 (United States)
  • 21 November 2003 (United Kingdom)
Running time
136 minutes
Countries
  • United Kingdom
  • United States
  • France[2]
LanguageEnglish
Budget$40–45 million[3][4]
Box office$246.8 million[4]

 


Love Actually 2003 x264 720p Esub BluRay Dual Audio English Hindi THE GOPI SAHI


Format                         : Matroska
Format version                 : Version 4
File size                      : 1.23 GiB
Duration                       : 2 h 14 min
Overall bit rate               : 1 304 kb/s
Movie name                     : Love Actually 2003 GOPI SAHI
Encoded date                   : UTC 2021-08-23 01:58:04

Video
ID                             : 1
Format                         : AVC
Format/Info                    : Advanced Video Codec
Format profile                 : [email protected]
Format settings                : CABAC / 5 Ref Frames
Format settings, CABAC         : Yes
Format settings, Reference fra : 5 frames
Codec ID                       : V_MPEG4/ISO/AVC
Duration                       : 2 h 14 min
Bit rate                       : 899 kb/s
Width                          : 1 280 pixels
Height                         : 546 pixels
Display aspect ratio           : 2.35:1
Frame rate mode                : Constant
Frame rate                     : 23.976 (24000/1001) FPS
Color space                    : YUV
Chroma subsampling             : 4:2:0
Bit depth                      : 8 bits
Scan type                      : Progressive
Bits/(Pixel*Frame)             : 0.054
Stream size                    : 867 MiB (69%)
Title                          : GOPI SAHI
Writing library                : x264 core 157 r2935 545de2f

Audio #1
ID                             : 2
Format                         : AAC LC
Format/Info                    : Advanced Audio Codec Low Complexity
Codec ID                       : A_AAC-2
Duration                       : 2 h 14 min
Bit rate                       : 192 kb/s
Channel(s)                     : 6 channels
Channel layout                 : C L R Ls Rs LFE
Sampling rate                  : 48.0 kHz
Frame rate                     : 46.875 FPS (1024 SPF)
Compression mode               : Lossy
Delay relative to video        : 1 s 137 ms
Stream size                    : 185 MiB (15%)
Title                          : GOPI SAHI
Language                       : Hindi
Default                        : Yes
Forced                         : No

Audio #2
ID                             : 3
Format                         : AAC LC
Format/Info                    : Advanced Audio Codec Low Complexity
Codec ID                       : A_AAC-2
Duration                       : 2 h 14 min
Bit rate                       : 192 kb/s
Channel(s)                     : 6 channels
Channel layout                 : C L R Ls Rs LFE
Sampling rate                  : 48.0 kHz
Frame rate                     : 46.875 FPS (1024 SPF)
Compression mode               : Lossy
Delay relative to video        : -21 ms
Stream size                    : 185 MiB (15%)
Title                          : GOPI SAHI
Language                       : English
Default                        : No
Forced                         : No

Text #1
ID                             : 4
Format                         : PGS
Muxing mode                    : zlib
Codec ID                       : S_HDMV/PGS
Codec ID/Info                  : Picture based subtitle format used on BDs/HD-DVDs
Duration                       : 2 h 13 min
Bit rate                       : 18.4 kb/s
Count of elements              : 2882
Stream size                    : 17.6 MiB (1%)
Title                          : GOPI SAHI
Language                       : Hindi
Default                        : Yes
Forced                         : Yes

Text #2
ID                             : 5
Format                         : PGS
Muxing mode                    : zlib
Codec ID                       : S_HDMV/PGS
Codec ID/Info                  : Picture based subtitle format used on BDs/HD-DVDs
Duration                       : 2 h 7 min
Bit rate                       : 38.2 kb/s
Count of elements              : 3587
Stream size                    : 34.8 MiB (3%)
Title                          : GOPI SAHI
Language                       : English
Default                        : No
Forced                         : No

Menu
00:00:00.000                   : :Chapter 1
00:09:46.419                   : :Chapter 2
00:15:09.450                   : :Chapter 3
00:22:43.320                   : :Chapter 4
00:29:48.453                   : :Chapter 5
00:36:42.534                   : :Chapter 6
00:44:21.492                   : :Chapter 7
00:51:24.248                   : :Chapter 8
00:58:23.458                   : :Chapter 9
01:06:27.442                   : :Chapter 10
01:09:28.414                   : :Chapter 11
01:15:55.217                   : :Chapter 12
01:23:32.591                   : :Chapter 13
01:28:46.571                   : :Chapter 14
01:36:44.757                   : :Chapter 15
01:45:01.837                   : :Chapter 16
01:51:38.984                   : :Chapter 17
01:58:19.009                   : :Chapter 18
02:05:34.902                   : :Chapter 19
02:06:42.553                   : :Chapter 20



 

 MAGNET

TORRENT

TORRENT 2 PRIVATE

G-DRIVE FILE COPY


DOWNLOAD AUTO START IN 20 SEC


DOWNLOAD AND ONLINE TERA-BOX LINK

MEDIA-FIRE

MEGA NZ


TELEGRAM

MEGAUP

DROPBOX

MAILRU

DOWNLOAD AND ONLINE

ONLINE 720P 

 

Post a Comment

0 Comments