Luca 2021 x264 720p Esub BluRay Dual Audio English Hindi THE GOPI SAHI

Luca (2021)

6 06/17/2021 (RU) AnimationComedyFamilyFantasy 1h 35m 

Overview

Luca and his best friend Alberto experience an unforgettable summer on the Italian Riviera. But all the fun is threatened by a deeply-held secret: they are sea monsters from another world just below the water’s surface.


Luca 2021 x264 720p Esub BluRay Dual Audio English Hindi THE GOPI SAHI


Format                         : Matroska
Format version                 : Version 4
File size                      : 876 MiB
Duration                       : 1 h 35 min
Overall bit rate               : 1 286 kb/s
Movie name                     : Luca 2021 GOPI SAHI
Encoded date                   : UTC 2021-08-01 03:10:24

Video
ID                             : 1
Format                         : AVC
Format/Info                    : Advanced Video Codec
Format profile                 : [email protected]
Format settings                : CABAC / 5 Ref Frames
Format settings, CABAC         : Yes
Format settings, Reference fra : 5 frames
Codec ID                       : V_MPEG4/ISO/AVC
Duration                       : 1 h 35 min
Bit rate                       : 899 kb/s
Width                          : 1 280 pixels
Height                         : 690 pixels
Display aspect ratio           : 1.85:1
Frame rate mode                : Constant
Frame rate                     : 23.976 (24000/1001) FPS
Color space                    : YUV
Chroma subsampling             : 4:2:0
Bit depth                      : 8 bits
Scan type                      : Progressive
Bits/(Pixel*Frame)             : 0.042
Stream size                    : 612 MiB (70%)
Title                          : GOPI SAHI
Writing library                : x264 core 157 r2935 545de2f

Audio #1
ID                             : 2
Format                         : AAC LC
Format/Info                    : Advanced Audio Codec Low Complexity
Codec ID                       : A_AAC-2
Duration                       : 1 h 35 min
Bit rate                       : 192 kb/s
Channel(s)                     : 6 channels
Channel layout                 : C L R Ls Rs LFE
Sampling rate                  : 48.0 kHz
Frame rate                     : 46.875 FPS (1024 SPF)
Compression mode               : Lossy
Delay relative to video        : -5 ms
Stream size                    : 131 MiB (15%)
Title                          : GOPI SAHI
Language                       : Hindi
Default                        : Yes
Forced                         : No

Audio #2
ID                             : 3
Format                         : AAC LC
Format/Info                    : Advanced Audio Codec Low Complexity
Codec ID                       : A_AAC-2
Duration                       : 1 h 35 min
Bit rate                       : 192 kb/s
Channel(s)                     : 6 channels
Channel layout                 : C L R Ls Rs LFE
Sampling rate                  : 48.0 kHz
Frame rate                     : 46.875 FPS (1024 SPF)
Compression mode               : Lossy
Delay relative to video        : -21 ms
Stream size                    : 131 MiB (15%)
Title                          : GOPI SAHI
Language                       : English
Default                        : No
Forced                         : No

Text
ID                             : 4
Format                         : UTF-8
Codec ID                       : S_TEXT/UTF8
Codec ID/Info                  : UTF-8 Plain Text
Duration                       : 1 h 33 min
Bit rate                       : 57 b/s
Count of elements              : 1551
Stream size                    : 39.7 KiB (0%)
Title                          : GOPI SAHI
Language                       : English
Default                        : Yes
Forced                         : No

Menu
00:00:00.000                   : :Chapter 1
00:02:27.981                   : :Chapter 2
00:06:27.220                   : :Chapter 3
00:08:29.884                   : :Chapter 4
00:11:19.512                   : :Chapter 5
00:14:35.291                   : :Chapter 6
00:16:30.198                   : :Chapter 7
00:17:07.735                   : :Chapter 8
00:21:19.487                   : :Chapter 9
00:23:31.994                   : :Chapter 10
00:26:01.393                   : :Chapter 11
00:28:11.815                   : :Chapter 12
00:32:55.515                   : :Chapter 13
00:35:39.971                   : :Chapter 14
00:37:29.372                   : :Chapter 15
00:41:38.204                   : :Chapter 16
00:42:25.877                   : :Chapter 17
00:45:04.118                   : :Chapter 18
00:46:06.681                   : :Chapter 19
00:48:53.639                   : :Chapter 20
00:51:00.099                   : :Chapter 21
00:52:04.747                   : :Chapter 22
00:54:33.562                   : :Chapter 23
00:56:18.834                   : :Chapter 24
00:58:30.340                   : :Chapter 25
01:00:07.521                   : :Chapter 26
01:00:43.598                   : :Chapter 27
01:02:10.060                   : :Chapter 28
01:04:51.930                   : :Chapter 29
01:06:49.088                   : :Chapter 30
01:09:33.836                   : :Chapter 31
01:13:19.979                   : :Chapter 32
01:16:47.478                   : :Chapter 33
01:19:33.477                   : :Chapter 34
01:20:53.724                   : :Chapter 35
01:24:35.112                   : :Chapter 36
01:33:41.574                   : :Chapter 37




 MAGNET

TORRENT


TORRENT 2 PRIVATE

G-DRIVE FILE COPY


DOWNLOAD AUTO START IN 20 SEC

DOWNLOAD AND ONLINE TERA-BOX LINK

MEDIA-FIRE

MEGA NZ

DOSYA

MAILRU

DOWNLOAD AND ONLINE

ONLINE 720P

 

Post a Comment

0 Comments