Mamma Mia 2008 x264 1080p Esub BluRay AC3 English Hindi THE GOPI SAHI

Mamma Mia! (2008)

AL 07/17/2008 (NL) ComedyRomance 1h 48m 

Take a trip down the aisle you'll never forget

Overview

An independent, single mother who owns a small hotel on a Greek island is about to marry off the spirited young daughter she's raised alone. But, the daughter has secretly invited three of her mother's ex-lovers in the hopes of finding her biological father.

 

Directed byPhyllida Lloyd
Screenplay byCatherina Johnson
Based onMamma Mia!
by Catherine Johnson
Produced by
Starring
CinematographyHaris Zambarloukos
Edited byLesley Walker
Music by
Production
companies
Distributed byUniversal Pictures
Release date
  • June 30, 2008 (Leicester Square)
  • July 10, 2008 (United Kingdom)
  • July 18, 2008 (United States)
Running time
109 minutes
Countries
  • United Kingdom
  • United States[1]
LanguageEnglish
Budget$52 million[2]
Box office$602.9 million[2]

 


 

Mamma Mia 2008 x264 1080p Esub BluRay AC3 English Hindi THE GOPI SAHI


Format                         : Matroska
Format version                 : Version 4
File size                      : 2.55 GiB
Duration                       : 1 h 48 min
Overall bit rate               : 3 363 kb/s
Movie name                     : Mamma Mia 2008 GOPI SAHI
Encoded date                   : UTC 2021-08-02 07:01:54

Video
ID                             : 1
Format                         : AVC
Format/Info                    : Advanced Video Codec
Format profile                 : [email protected]
Format settings                : CABAC / 4 Ref Frames
Format settings, CABAC         : Yes
Format settings, Reference fra : 4 frames
Codec ID                       : V_MPEG4/ISO/AVC
Duration                       : 1 h 48 min
Bit rate                       : 2 500 kb/s
Width                          : 1 920 pixels
Height                         : 800 pixels
Display aspect ratio           : 2.40:1
Frame rate mode                : Constant
Frame rate                     : 23.976 (24000/1001) FPS
Original frame rate            : 23.976 (23976/1000) FPS
Color space                    : YUV
Chroma subsampling             : 4:2:0
Bit depth                      : 8 bits
Scan type                      : Progressive
Bits/(Pixel*Frame)             : 0.068
Stream size                    : 1.90 GiB (74%)
Title                          : GOPI SAHI
Writing library                : x264 core 152 r2851M ba24899

Audio #1
ID                             : 2
Format                         : AC-3
Format/Info                    : Audio Coding 3
Commercial name                : Dolby Digital
Codec ID                       : A_AC3
Duration                       : 1 h 48 min
Bit rate mode                  : Constant
Bit rate                       : 224 kb/s
Channel(s)                     : 2 channels
Channel layout                 : L R
Sampling rate                  : 48.0 kHz
Frame rate                     : 31.250 FPS (1536 SPF)
Compression mode               : Lossy
Delay relative to video        : 3 s 700 ms
Stream size                    : 174 MiB (7%)
Title                          : GOPI SAHI
Language                       : Hindi
Service kind                   : Complete Main
Default                        : Yes
Forced                         : No

Audio #2
ID                             : 3
Format                         : AC-3
Format/Info                    : Audio Coding 3
Commercial name                : Dolby Digital
Codec ID                       : A_AC3
Duration                       : 1 h 48 min
Bit rate mode                  : Constant
Bit rate                       : 640 kb/s
Channel(s)                     : 6 channels
Channel layout                 : L R C LFE Ls Rs
Sampling rate                  : 48.0 kHz
Frame rate                     : 31.250 FPS (1536 SPF)
Compression mode               : Lossy
Stream size                    : 497 MiB (19%)
Title                          : GOPI SAHI
Language                       : English
Service kind                   : Complete Main
Default                        : No
Forced                         : No

Text
ID                             : 4
Format                         : UTF-8
Codec ID                       : S_TEXT/UTF8
Codec ID/Info                  : UTF-8 Plain Text
Duration                       : 1 h 42 min
Bit rate                       : 64 b/s
Count of elements              : 1567
Stream size                    : 48.4 KiB (0%)
Title                          : GOPI SAHI
Language                       : English
Default                        : No
Forced                         : No



 
 
 

Post a Comment

0 Comments