Mamma Mia 2008 x264 720p Esub BluRay Dual Audio English Hindi THE GOPI SAHI

 

Mamma Mia! Here We Go Again (2018)

AL 07/19/2018 (NL) ComedyRomance 1h 53m 
 

Discover how it all began.

Overview

Five years after meeting her three fathers, Sophie Sheridan prepares to open her mother’s hotel. In 1979, young Donna Sheridan meets the men who each could be Sophie’s biological father.

 

Directed byOl Parker
Screenplay byOl Parker
Story by
Based onMamma Mia!
by Catherine Johnson
Produced by
Starring
CinematographyRobert Yeoman
Edited byPeter Lambert
Music byBjörn Ulvaeus

Benny Andersson

Stig Anderson
Production
companies
Distributed byUniversal Pictures
Release date
Running time
114 minutes[3]
Countries
  • United Kingdom
  • United States
LanguageEnglish
Budget$75 million[4]
Box office$395 million[4]

 

Mamma Mia 2008 x264 720p Esub BluRay Dual Audio English Hindi THE GOPI SAHI

Format                         : Matroska
Format version                 : Version 4
File size                      : 925 MiB
Duration                       : 1 h 48 min
Overall bit rate               : 1 190 kb/s
Movie name                     : Mamma Mia 2008 GOPI SAHI
Encoded date                   : UTC 2021-08-03 13:07:17

Video
ID                             : 1
Format                         : AVC
Format/Info                    : Advanced Video Codec
Format profile                 : [email protected]
Format settings                : CABAC / 5 Ref Frames
Format settings, CABAC         : Yes
Format settings, Reference fra : 5 frames
Codec ID                       : V_MPEG4/ISO/AVC
Duration                       : 1 h 48 min
Bit rate                       : 899 kb/s
Width                          : 1 280 pixels
Height                         : 534 pixels
Display aspect ratio           : 2.40:1
Frame rate mode                : Constant
Frame rate                     : 23.976 (24000/1001) FPS
Color space                    : YUV
Chroma subsampling             : 4:2:0
Bit depth                      : 8 bits
Scan type                      : Progressive
Bits/(Pixel*Frame)             : 0.055
Stream size                    : 698 MiB (75%)
Title                          : GOPI SAHI
Writing library                : x264 core 157 r2935 545de2f


Audio #1
ID                             : 2
Format                         : AAC LC
Format/Info                    : Advanced Audio Codec Low Complexity
Codec ID                       : A_AAC-2
Duration                       : 1 h 48 min
Bit rate                       : 96.0 kb/s
Channel(s)                     : 2 channels
Channel layout                 : L R
Sampling rate                  : 48.0 kHz
Frame rate                     : 46.875 FPS (1024 SPF)
Compression mode               : Lossy
Delay relative to video        : 3 s 679 ms
Stream size                    : 75.0 MiB (8%)
Title                          : GOPI SAHI
Language                       : Hindi
Default                        : Yes
Forced                         : No

Audio #2
ID                             : 3
Format                         : AAC LC
Format/Info                    : Advanced Audio Codec Low Complexity
Codec ID                       : A_AAC-2
Duration                       : 1 h 48 min
Bit rate                       : 192 kb/s
Channel(s)                     : 6 channels
Channel layout                 : C L R Ls Rs LFE
Sampling rate                  : 48.0 kHz
Frame rate                     : 46.875 FPS (1024 SPF)
Compression mode               : Lossy
Delay relative to video        : -21 ms
Stream size                    : 149 MiB (16%)
Title                          : GOPI SAHI
Language                       : English
Default                        : No
Forced                         : No

Text
ID                             : 4
Format                         : UTF-8
Codec ID                       : S_TEXT/UTF8
Codec ID/Info                  : UTF-8 Plain Text
Duration                       : 1 h 42 min
Bit rate                       : 64 b/s
Count of elements              : 1568
Stream size                    : 48.4 KiB (0%)
Title                          : GOPI SAHI
Language                       : English
Default                        : Yes
Forced                         : No




MAGNET

TORRENT

TORRENT 2 PRIVATE


G-DRIVE FILE COPY

DOWNLOAD AUTO START IN 20 SEC

DOWNLOAD AND ONLINE TERA-BOX LINK

MEDIA-FIRE

MEGA NZ


DOSYA

DROPBOX

MAILRU

DOWNLOAD AND ONLINE


ONLINE 720P



Post a Comment

0 Comments