Mamma Mia Here We Go Again 2018 x264 1080p BluRay Esub DD 5.1 AC3 English Hindi THE GOPI SAHI

 

Mamma Mia! Here We Go Again (2018)

AL 07/19/2018 (NL) ComedyRomance 1h 53m 
 

Discover how it all began.

Overview

Five years after meeting her three fathers, Sophie Sheridan prepares to open her mother’s hotel. In 1979, young Donna Sheridan meets the men who each could be Sophie’s biological father.

 

Directed byOl Parker
Screenplay byOl Parker
Story by
Based onMamma Mia!
by Catherine Johnson
Produced by
Starring
CinematographyRobert Yeoman
Edited byPeter Lambert
Music byBjörn Ulvaeus

Benny Andersson

Stig Anderson
Production
companies
Distributed byUniversal Pictures
Release date
Running time
114 minutes[3]
Countries
  • United Kingdom
  • United States
LanguageEnglish
Budget$75 million[4]
Box office$395 million[4]

 

 Mamma Mia Here We Go Again 2018 x264 1080p BluRay Esub DD 5.1 AC3 English Hindi THE GOPI SAHI


Format                         : Matroska
Format version                 : Version 4
File size                      : 3.01 GiB
Duration                       : 1 h 53 min
Overall bit rate               : 3 788 kb/s
Movie name                     : Mamma Mia Here We Go Again 2018 GOPI SAHI
Encoded date                   : UTC 2021-08-02 11:46:24


Video
ID                             : 1
Format                         : AVC
Format/Info                    : Advanced Video Codec
Format profile                 : [email protected]
Format settings                : CABAC / 4 Ref Frames
Format settings, CABAC         : Yes
Format settings, Reference fra : 4 frames
Codec ID                       : V_MPEG4/ISO/AVC
Duration                       : 1 h 53 min
Bit rate                       : 2 500 kb/s
Width                          : 1 920 pixels
Height                         : 800 pixels
Display aspect ratio           : 2.40:1
Frame rate mode                : Constant
Frame rate                     : 23.976 (23976/1000) FPS
Color space                    : YUV
Chroma subsampling             : 4:2:0
Bit depth                      : 8 bits
Scan type                      : Progressive
Bits/(Pixel*Frame)             : 0.068
Stream size                    : 1.98 GiB (66%)
Title                          : GOPI SAHI
Writing library                : x264 core 152 r2851M ba24899

Audio #1
ID                             : 2
Format                         : AC-3
Format/Info                    : Audio Coding 3
Commercial name                : Dolby Digital
Codec ID                       : A_AC3
Duration                       : 1 h 53 min
Bit rate mode                  : Constant
Bit rate                       : 640 kb/s
Channel(s)                     : 6 channels
Channel layout                 : L R C LFE Ls Rs
Sampling rate                  : 48.0 kHz
Frame rate                     : 31.250 FPS (1536 SPF)
Compression mode               : Lossy
Stream size                    : 521 MiB (17%)
Title                          : GOPI SAHI
Language                       : Hindi
Service kind                   : Complete Main
Default                        : Yes
Forced                         : No

Audio #2
ID                             : 3
Format                         : AC-3
Format/Info                    : Audio Coding 3
Commercial name                : Dolby Digital
Codec ID                       : A_AC3
Duration                       : 1 h 53 min
Bit rate mode                  : Constant
Bit rate                       : 640 kb/s
Channel(s)                     : 6 channels
Channel layout                 : L R C LFE Ls Rs
Sampling rate                  : 48.0 kHz
Frame rate                     : 31.250 FPS (1536 SPF)
Compression mode               : Lossy
Stream size                    : 520 MiB (17%)
Title                          : GOPI SAHI
Language                       : English
Service kind                   : Complete Main
Default                        : No
Forced                         : No

Text
ID                             : 4
Format                         : VobSub
Muxing mode                    : zlib
Codec ID                       : S_VOBSUB
Codec ID/Info                  : Picture based subtitle format used on DVDs
Duration                       : 1 h 52 min
Bit rate                       : 12.4 kb/s
Count of elements              : 1753
Stream size                    : 10.0 MiB (0%)
Title                          : GOPI SAHI
Language                       : English
Default                        : No
Forced                         : No


TORRENT

G-DRIVE FILE COPY

DOWNLOAD AUTO START IN 20 SEC

DOWNLOAD AND ONLINE TERA-BOX LINK

MEDIA-FIRE

MEGA NZ

DROPBOX

DOWNLOAD AND ONLINE

ONLINE 720P



Post a Comment

0 Comments