Monster Run 2020 x264 720p WebHD Esub English Hindi Telugu Tamil THE GOPI SAHI

 

Monster Run (2020)

08/18/2020 (CN) ActionAdventureFantasy 1h 44m 

Overview

Some strange things have always existed, you think it is a coincidence, or make up a reason to make it reasonable, in fact, because you do not want to admit. At the end of the season, she was regarded as an outlier because she could see monsters, until one day she saw monsters again in the supermarket where she worked and magically met Monster Hunter-Brother Meng. She discovered that there really were monsters in the world, and the two young men were involved in a new storm.

 

Chinese theatrical release poster

Traditional捉妖記
Simplified捉妖记
Mandarinzhuō yāo jì
LiterallyTale of catching demons
Directed byRaman Hui
Written byAlan Yuen
Based onStrange Stories from a Chinese Studio
by Pu Songling
Produced byBill Kong
Alan Yuen
Yee Chung-man
Doris Tse
Starring
CinematographyAnthony Pun
Edited byKa-Fai Cheung
Music byLeon Ko
Production
companies
  • Dream Sky Entertainment
  • Beijing Digital Impression Media
  • Tencent Video
  • Heyi Pictures
  • Beijing Union Pictures
  • Zhejiang Xinghe Culture Agency
  • Zhejiang Sanle Pictures
  • Zhejiang Film and TV
  • EDKO
  • Guanxing Entertainment
Distributed byChina Film Group Corporation
EDKO (Beijing) Distribution Co.
Tianjin Lianrui Pictures Co.
Union Pictures
Central Partnership
Sony Pictures Releasing
Union Pictures
Viva International Pictures
Alive Vertrieb und Marketing
Falcom Media
FilmRise
GEM Entertainment
IPA Asia Pacific
Release date
  • July 16, 2015
Running time
118 minutes
Countries
Languages
BudgetUS$56 million[nb 1]
Box officeUS$385.28 million[7][8]

 

 


 

Monster Run 2020 x264 720p WebHD Esub English Hindi Telugu Tamil THE GOPI SAHI


Format                         : Matroska
Format version                 : Version 4
File size                      : 960 MiB
Duration                       : 1 h 44 min
Overall bit rate               : 1 290 kb/s
Movie name                     : Monster Run 2020 GOPI SAHI
Encoded date                   : UTC 2021-08-23 09:19:57

Video
ID                             : 1
Format                         : AVC
Format/Info                    : Advanced Video Codec
Format profile                 : [email protected]
Format settings                : CABAC / 5 Ref Frames
Format settings, CABAC         : Yes
Format settings, Reference fra : 5 frames
Codec ID                       : V_MPEG4/ISO/AVC
Duration                       : 1 h 44 min
Bit rate                       : 899 kb/s
Width                          : 1 280 pixels
Height                         : 538 pixels
Display aspect ratio           : 2.40:1
Frame rate mode                : Constant
Frame rate                     : 23.976 (24000/1001) FPS
Color space                    : YUV
Chroma subsampling             : 4:2:0
Bit depth                      : 8 bits
Scan type                      : Progressive
Bits/(Pixel*Frame)             : 0.054
Stream size                    : 670 MiB (70%)
Title                          : GOPI SAHI
Writing library                : x264 core 157 r2935 545de2f

Audio #1
ID                             : 2
Format                         : AAC LC
Format/Info                    : Advanced Audio Codec Low Complexity
Codec ID                       : A_AAC-2
Duration                       : 1 h 44 min
Bit rate                       : 96.0 kb/s
Channel(s)                     : 2 channels
Channel layout                 : L R
Sampling rate                  : 48.0 kHz
Frame rate                     : 46.875 FPS (1024 SPF)
Compression mode               : Lossy
Delay relative to video        : -21 ms
Stream size                    : 71.9 MiB (7%)
Title                          : GOPI SAHI
Language                       : Hindi
Default                        : Yes
Forced                         : No

Audio #2
ID                             : 3
Format                         : AAC LC
Format/Info                    : Advanced Audio Codec Low Complexity
Codec ID                       : A_AAC-2
Duration                       : 1 h 44 min
Bit rate                       : 96.0 kb/s
Channel(s)                     : 2 channels
Channel layout                 : L R
Sampling rate                  : 48.0 kHz
Frame rate                     : 46.875 FPS (1024 SPF)
Compression mode               : Lossy
Delay relative to video        : -21 ms
Stream size                    : 71.9 MiB (7%)
Title                          : GOPI SAHI
Language                       : English
Default                        : No
Forced                         : No

Audio #3
ID                             : 4
Format                         : AAC LC
Format/Info                    : Advanced Audio Codec Low Complexity
Codec ID                       : A_AAC-2
Duration                       : 1 h 44 min
Bit rate                       : 96.0 kb/s
Channel(s)                     : 2 channels
Channel layout                 : L R
Sampling rate                  : 48.0 kHz
Frame rate                     : 46.875 FPS (1024 SPF)
Compression mode               : Lossy
Delay relative to video        : -21 ms
Stream size                    : 71.9 MiB (7%)
Title                          : GOPI SAHI
Language                       : Tamil
Default                        : No
Forced                         : No

Audio #4
ID                             : 5
Format                         : AAC LC
Format/Info                    : Advanced Audio Codec Low Complexity
Codec ID                       : A_AAC-2
Duration                       : 1 h 44 min
Bit rate                       : 96.0 kb/s
Channel(s)                     : 2 channels
Channel layout                 : L R
Sampling rate                  : 48.0 kHz
Frame rate                     : 46.875 FPS (1024 SPF)
Compression mode               : Lossy
Delay relative to video        : -21 ms
Stream size                    : 71.9 MiB (7%)
Title                          : GOPI SAHI
Language                       : Telugu
Default                        : No
Forced                         : No

Text
ID                             : 6
Format                         : UTF-8
Codec ID                       : S_TEXT/UTF8
Codec ID/Info                  : UTF-8 Plain Text
Duration                       : 1 h 34 min
Bit rate                       : 32 b/s
Count of elements              : 823
Stream size                    : 22.4 KiB (0%)
Title                          : GOPI SAHI
Language                       : English
Default                        : Yes
Forced                         : No




 

Post a Comment

0 Comments