Pacific Rim 2013 x264 720p Esub BluRay Dual Audio English Hindi THE GOPI SAHI

Pacific Rim (2013)

12 07/18/2013 (NL) ActionScience FictionAdventure 2h 11m 

To Fight Monsters, We Created Monsters

Overview

A ragtag band of humans band together in the year 2025 to fight legions of monstrous creatures rising from the sea. Using massive piloted robots to combat the alien threat, earth's survivors take the fight to the invading alien force lurking in the depths of the Pacific Ocean. Nearly defenseless in the face of the relentless enemy, the forces of mankind have no choice but to turn to two unlikely heroes -- a washed up former pilot and an untested trainee -- who now stand as earth's final hope against the mounting apocalypse.

 

Directed byGuillermo del Toro
Screenplay by
Story byTravis Beacham
Produced by
Starring
CinematographyGuillermo Navarro
Edited by
Music byRamin Djawadi
Production
companies
Distributed byWarner Bros. Pictures
Release date
  • July 1, 2013 (Mexico City)
  • July 12, 2013 (United States)
Running time
132 minutes[1]
CountryUnited States[2]
LanguageEnglish
Budget$180–200 million[3]
Box office$411 million[4]

 


Pacific Rim 2013 x264 720p Esub BluRay Dual Audio English Hindi THE GOPI SAHI


Format                         : Matroska
Format version                 : Version 4
File size                      : 1.47 GiB
Duration                       : 2 h 11 min
Overall bit rate               : 1 601 kb/s
Movie name                     : Pacific Rim 2013 GOPI SAHI
Encoded date                   : UTC 2021-08-13 01:15:27

Video
ID                             : 1
Format                         : AVC
Format/Info                    : Advanced Video Codec
Format profile                 : [email protected]
Format settings                : CABAC / 5 Ref Frames
Format settings, CABAC         : Yes
Format settings, Reference fra : 5 frames
Codec ID                       : V_MPEG4/ISO/AVC
Duration                       : 2 h 11 min
Bit rate                       : 1 200 kb/s
Width                          : 1 280 pixels
Height                         : 720 pixels
Display aspect ratio           : 16:9
Frame rate mode                : Constant
Frame rate                     : 23.976 (24000/1001) FPS
Color space                    : YUV
Chroma subsampling             : 4:2:0
Bit depth                      : 8 bits
Scan type                      : Progressive
Bits/(Pixel*Frame)             : 0.054
Stream size                    : 1.10 GiB (75%)
Title                          : GOPI SAHI
Writing library                : x264 core 157 r2935 545de2f

Audio #1
ID                             : 2
Format                         : AAC LC
Format/Info                    : Advanced Audio Codec Low Complexity
Codec ID                       : A_AAC-2
Duration                       : 2 h 11 min
Bit rate                       : 192 kb/s
Channel(s)                     : 6 channels
Channel layout                 : C L R Ls Rs LFE
Sampling rate                  : 48.0 kHz
Frame rate                     : 46.875 FPS (1024 SPF)
Compression mode               : Lossy
Delay relative to video        : 1 s 992 ms
Stream size                    : 180 MiB (12%)
Title                          : GOPI SAHI
Language                       : Hindi
Default                        : Yes
Forced                         : No

Audio #2
ID                             : 3
Format                         : AAC LC
Format/Info                    : Advanced Audio Codec Low Complexity
Codec ID                       : A_AAC-2
Duration                       : 2 h 11 min
Bit rate                       : 192 kb/s
Channel(s)                     : 6 channels
Channel layout                 : C L R Ls Rs LFE
Sampling rate                  : 48.0 kHz
Frame rate                     : 46.875 FPS (1024 SPF)
Compression mode               : Lossy
Delay relative to video        : -21 ms
Stream size                    : 181 MiB (12%)
Title                          : GOPI SAHI
Language                       : English
Default                        : No
Forced                         : No

Text
ID                             : 4
Format                         : PGS
Muxing mode                    : zlib
Codec ID                       : S_HDMV/PGS
Codec ID/Info                  : Picture based subtitle format used on BDs/HD-DVDs
Duration                       : 2 h 10 min
Bit rate                       : 31.2 kb/s
Count of elements              : 3670
Stream size                    : 29.1 MiB (2%)
Title                          : GOPI SAHI
Language                       : English
Default                        : No
Forced                         : No

Menu
00:00:00.000                   : :Chapter 1
00:09:09.132                   : :Chapter 2
00:18:35.906                   : :Chapter 3
00:23:04.508                   : :Chapter 4
00:33:00.479                   : :Chapter 5
00:42:44.937                   : :Chapter 6
00:50:01.749                   : :Chapter 7
01:01:09.749                   : :Chapter 8
01:14:45.272                   : :Chapter 9
01:22:21.395                   : :Chapter 10
01:32:10.025                   : :Chapter 11
01:41:55.693                   : :Chapter 12
01:51:37.983                   : :Chapter 13
01:59:21.112                   : :Chapter 14
02:02:17.872                   : :Chapter 15




 MAGNET

TORRENT


TORRENT 2 PRIVATE

G-DRIVE FILE COPY


DOWNLOAD AUTO START IN 20 SEC

DOWNLOAD AND ONLINE TERA-BOX LINK


MEDIA-FIRE

MEGA NZ


DROPBOX

MAILRU

DOWNLOAD AND ONLINE


ONLINE 720P

 

Post a Comment

0 Comments